<?xml version="1.0" standalone="no"?>
<!DOCTYPE svg PUBLIC "-//W3C//DTD SVG 1.1//EN" "http://www.w3.org/Graphics/SVG/1.1/DTD/svg11.dtd" >
<svg xmlns="http://www.w3.org/2000/svg">
<metadata>Generated by IcoMoon</metadata>
<defs>
<font id="font-icon" horiz-adv-x="1024">
<font-face units-per-em="1024" ascent="960" descent="-64" />
<missing-glyph horiz-adv-x="1024" />
<glyph unicode="&#x20;" horiz-adv-x="512" d="" />
<glyph unicode="&#xe900;" glyph-name="amazon" d="M522.24 663.040c-10.24 0-20.48 0-30.72-5.12-10.24 0-20.48 0-30.72-5.12-40.96-5.12-92.16-15.36-128-30.72-87.040-35.84-133.12-107.52-133.12-199.68 0-25.6 5.12-46.080 10.24-71.68 25.6-76.8 92.16-122.88 179.2-122.88 30.72 0 56.32 5.12 87.040 10.24 35.84 10.24 61.44 30.72 97.28 61.44v0c10.24-15.36 20.48-30.72 51.2-51.2 5.12-5.12 5.12-5.12 10.24-5.12 15.36-5.12 25.6-5.12 35.84 0 0 0 5.12 5.12 5.12 5.12 15.36 15.36 40.96 35.84 61.44 51.2l25.6 20.48c0 0 5.12 5.12 5.12 5.12 5.12 5.12 10.24 15.36 10.24 25.6 0 5.12 0 15.36-5.12 20.48 0 0-5.12 5.12-5.12 10.24-5.12 5.12-5.12 10.24-10.24 10.24-15.36 20.48-30.72 40.96-30.72 81.92v199.68c0 61.44 5.12 128-51.2 184.32-46.080 40.96-107.52 61.44-179.2 61.44h-25.6c-138.24-10.24-225.28-76.8-245.76-189.44 0 0 0-5.12 0-10.24 0-10.24 5.12-20.48 10.24-25.6s20.48-10.24 25.6-10.24l102.4-15.36c5.12 0 15.36 0 20.48 5.12 15.36 10.24 20.48 25.6 25.6 35.84 5.12 30.72 30.72 56.32 61.44 56.32h5.12c15.36 0 35.84-10.24 40.96-20.48 10.24-15.36 10.24-46.080 10.24-66.56v0c5.12-15.36 0-15.36-5.12-15.36zM583.68 770.56c-25.6 30.72-61.44 51.2-102.4 51.2h-5.12c-56.32 0-107.52-35.84-128-92.16l-40.96 5.12c30.72 71.68 107.52 92.16 168.96 97.28h20.48c51.2 0 102.4-15.36 133.12-40.96 30.72-30.72 30.72-66.56 30.72-128v-199.68c0-56.32 20.48-87.040 40.96-112.64v0c-15.36-10.24-30.72-25.6-40.96-35.84-10.24 10.24-15.36 15.36-20.48 25.6l-5.12 5.12c-5.12 5.12-5.12 10.24-10.24 15.36-15.36 25.6-56.32 30.72-76.8 5.12-30.72-30.72-56.32-51.2-76.8-56.32-25.6-5.12-46.080-10.24-66.56-10.24-40.96 0-92.16 15.36-112.64 71.68-5.12 15.36-5.12 30.72-5.12 51.2 0 66.56 30.72 112.64 92.16 138.24 30.72 15.36 71.68 20.48 107.52 25.6 10.24 0 20.48 0 30.72 5.12 10.24 0 20.48 0 25.6 5.12 5.12 0 10.24 0 15.36 0 10.24 0 15.36 0 20.48 0 25.6 5.12 40.96 25.6 40.96 51.2v20.48c-15.36 25.6-15.36 66.56-35.84 102.4zM537.6 576c-30.72 0-51.2-5.12-66.56-10.24 0 0-5.12 0-5.12 0-61.44-20.48-97.28-61.44-97.28-122.88s35.84-102.4 87.040-102.4c5.12 0 10.24 0 15.36 5.12 0 0 5.12 0 5.12 0s0 0 0 0c30.72 10.24 56.32 30.72 71.68 56.32 25.6 40.96 25.6 76.8 25.6 122.88v15.36c0 10.24-5.12 20.48-10.24 25.6s-15.36 10.24-25.6 10.24zM486.4 432.64c-5.12-10.24-15.36-20.48-25.6-20.48 0 0-5.12 0-5.12 0s0 0-5.12 0c-10.24 0-15.36 15.36-15.36 30.72 0 25.6 5.12 46.080 46.080 56.32 5.12 0 15.36 0 20.48 5.12 5.12-30.72 0-46.080-15.36-71.68zM967.68 253.44c0 5.12-5.12 10.24-10.24 15.36s-15.36 10.24-20.48 10.24c-20.48 5.12-56.32 10.24-81.92 5.12-5.12 0-5.12 0-10.24 0s-5.12 0-10.24 0-5.12 0-10.24 0c-30.72-5.12-51.2-20.48-61.44-30.72-5.12-5.12-20.48-15.36-20.48-35.84 0-10.24 5.12-20.48 10.24-25.6s5.12-5.12 10.24-10.24l-5.12-5.12c0 0 0 0 0 0-87.040-35.84-184.32-56.32-271.36-61.44-81.92 0-168.96 15.36-230.4 46.080-10.24 5.12-20.48 10.24-35.84 15.36-30.72 15.36-56.32 30.72-76.8 40.96 0 0-5.12 0-5.12 5.12-5.12 0-10.24 5.12-15.36 10.24-5.12 0-5.12 5.12-5.12 5.12h-5.12c-10.24 10.24-30.72 10.24-46.080 5.12-5.12 0-10.24-5.12-10.24-10.24-5.12-5.12-10.24-15.36-10.24-25.6s5.12-20.48 15.36-30.72c107.52-92.16 235.52-194.56 414.72-194.56h10.24c112.64 5.12 230.4 40.96 322.56 97.28 5.12 0 15.36 10.24 25.6 15.36 0 0 0 0 0 0 0-10.24 5.12-20.48 10.24-30.72 0 0 5.12-5.12 5.12-5.12 15.36-15.36 30.72-15.36 46.080 0 5.12 0 5.12 5.12 10.24 5.12 51.2 46.080 66.56 117.76 66.56 153.6v5.12c0 15.36 0 25.6-5.12 30.72zM901.12 192c0 0-5.12 0-5.12 5.12s0 10.24 0 20.48c5.12 0 10.24 0 10.24 0-5.12-10.24-5.12-15.36-5.12-25.6z" />
<glyph unicode="&#xe901;" glyph-name="android" d="M956.416 517.139c0 24.586-9.947 46.864-25.969 63.133-0.167 0.177-0.213 0.409-0.386 0.583-2.669 2.659-5.673 4.728-8.573 6.983-1.695 1.33-3.211 2.867-5.002 4.073-2.734 1.831-5.672 3.15-8.55 4.65-2.377 1.252-4.627 2.697-7.122 3.736-2.628 1.084-5.372 1.688-8.075 2.513-2.959 0.914-5.823 2.022-8.905 2.631-3.059 0.6-6.178 0.658-9.277 0.939-2.741 0.252-5.386 0.828-8.189 0.828-2.805 0-5.448-0.577-8.189-0.828-3.098-0.281-6.217-0.339-9.278-0.939-3.072-0.606-5.927-1.711-8.875-2.623-2.712-0.827-5.469-1.436-8.109-2.523-2.475-1.033-4.708-2.466-7.067-3.706-2.895-1.506-5.85-2.836-8.598-4.677-1.792-1.206-3.306-2.744-5.002-4.073-2.9-2.255-5.906-4.323-8.573-6.983-0.173-0.173-0.22-0.406-0.388-0.583-16.020-16.269-25.967-38.547-25.967-63.133v-158.216c0-24.652 9.984-46.984 26.080-63.259 0.139-0.144 0.18-0.338 0.32-0.48 2.628-2.622 5.597-4.655 8.455-6.884 1.723-1.348 3.255-2.911 5.072-4.131 2.836-1.902 5.878-3.277 8.87-4.82 2.267-1.183 4.405-2.564 6.778-3.555 2.683-1.106 5.491-1.73 8.248-2.567 2.909-0.894 5.731-1.984 8.759-2.584 3.006-0.587 6.067-0.638 9.109-0.92 2.794-0.263 5.494-0.845 8.355-0.845 2.853 0 5.544 0.583 8.331 0.842 3.055 0.283 6.12 0.336 9.138 0.923 3.027 0.6 5.847 1.691 8.758 2.584 2.758 0.837 5.559 1.458 8.242 2.566 2.383 0.989 4.52 2.377 6.792 3.563 2.989 1.542 6.034 2.922 8.867 4.82 1.769 1.188 3.258 2.711 4.933 4.017 2.905 2.259 5.914 4.33 8.584 6.992 0.142 0.142 0.183 0.336 0.32 0.48 16.097 16.275 26.081 38.611 26.081 63.259v158.216zM873.681 341.247c-1.391-0.58-2.977-0.678-4.509-0.913-1.886-0.283-3.72-0.283-5.608 0-1.531 0.234-3.117 0.333-4.508 0.913-1.517 0.62-2.83 1.736-4.186 2.761-4.537 3.505-7.656 8.745-7.656 14.916v158.216c0 5.731 2.645 10.731 6.644 14.25 1.609 1.405 3.313 2.67 5.202 3.447 1.413 0.589 3.023 0.695 4.583 0.93 1.838 0.264 3.616 0.264 5.453 0 1.559-0.234 3.169-0.341 4.583-0.93 1.889-0.777 3.592-2.042 5.202-3.447 3.997-3.519 6.642-8.519 6.642-14.25v-158.216c0-6.17-3.117-11.411-7.655-14.916-1.356-1.025-2.669-2.141-4.186-2.761zM221.322 580.855c-2.536 2.533-5.406 4.48-8.155 6.645-1.83 1.448-3.477 3.111-5.417 4.414-2.755 1.847-5.717 3.173-8.62 4.684-2.353 1.237-4.577 2.669-7.047 3.695-2.653 1.097-5.422 1.708-8.152 2.539-2.936 0.905-5.786 2.005-8.841 2.608-2.972 0.58-5.989 0.628-8.995 0.911-2.83 0.269-5.567 0.856-8.466 0.856-3.061 0-5.956-0.605-8.939-0.905-2.845-0.283-5.7-0.309-8.511-0.861-3.277-0.645-6.334-1.811-9.472-2.803-2.502-0.781-5.055-1.327-7.489-2.331-2.738-1.136-5.209-2.703-7.803-4.095-2.636-1.402-5.345-2.591-7.861-4.272-2.567-1.725-4.784-3.869-7.159-5.842-2.145-1.777-4.45-3.259-6.458-5.267-0.116-0.116-0.147-0.273-0.259-0.392-16.117-16.284-26.119-38.636-26.119-63.3v-158.216c0-24.641 9.984-46.964 26.075-63.239 0.133-0.136 0.17-0.32 0.303-0.453 2.431-2.43 5.192-4.284 7.82-6.375 1.933-1.547 3.689-3.303 5.745-4.687 2.772-1.855 5.752-3.191 8.669-4.708 2.336-1.223 4.537-2.652 6.986-3.669 2.658-1.094 5.433-1.708 8.161-2.539 2.936-0.906 5.784-2.005 8.839-2.611 3.017-0.591 6.086-0.641 9.141-0.923 2.788-0.259 5.478-0.842 8.331-0.842 2.894 0 5.628 0.586 8.452 0.855 3.006 0.28 6.027 0.325 8.997 0.908 3.108 0.616 6.003 1.728 8.989 2.655 2.677 0.819 5.406 1.419 8.012 2.492 2.433 1.009 4.619 2.423 6.936 3.634 2.947 1.527 5.953 2.881 8.752 4.755 1.644 1.105 3.028 2.53 4.595 3.737 3.034 2.331 6.156 4.503 8.936 7.272 0.162 0.162 0.205 0.384 0.361 0.545 16.067 16.27 26.039 38.573 26.039 63.194v158.216c0 24.62-9.972 46.93-26.039 63.205-0.147 0.153-0.187 0.361-0.337 0.511zM164.942 341.247c-2.198-0.909-4.598-1.408-7.114-1.438-0.069 0-0.133-0.039-0.202-0.039-2.619 0-5.109 0.536-7.384 1.491-0.981 0.406-1.786 1.211-2.703 1.789-5.336 3.403-9.086 9.089-9.086 15.873v158.216c0 6.366 3.325 11.745 8.12 15.236 1.211 0.875 2.35 1.892 3.692 2.45 2.27 0.948 4.753 1.491 7.364 1.491 2.608 0 5.087-0.542 7.356-1.487 2.006-0.834 3.844-2.136 5.53-3.688 3.813-3.508 6.291-8.428 6.291-14.002v-158.216c0-5.614-2.523-10.547-6.383-14.052-1.68-1.508-3.494-2.806-5.481-3.625zM718.261 607.208h-412.547c-19.569 0-35.445-15.877-35.445-35.445v-373.639c0-19.569 15.877-35.447 35.445-35.447h24.392v-100.43c0-2.273 0.886-4.255 1.295-6.411 1.558-18.025 9.153-34.333 21.214-46.462 0.045-0.045 0.061-0.113 0.106-0.158 2.516-2.519 5.336-4.578 8.123-6.687 1.056-0.795 1.956-1.77 3.052-2.513 3.531-2.391 7.306-4.32 11.164-6.059 0.562-0.255 1.050-0.627 1.617-0.869 3.616-1.523 7.411-2.556 11.239-3.494 0.989-0.242 1.902-0.675 2.905-0.88 4.886-0.986 9.9-1.514 15-1.514h0.023c5.094 0 10.105 0.531 14.986 1.517 0.992 0.202 1.889 0.631 2.867 0.872 3.825 0.937 7.617 1.97 11.23 3.492 0.998 0.425 1.869 1.063 2.844 1.527 3.395 1.609 6.77 3.262 9.906 5.383 4.033 2.723 7.791 5.82 11.219 9.25 0.008 0.009 0.017 0.012 0.025 0.020 0.012 0.012 0.014 0.030 0.027 0.041 13.531 13.578 21.92 32.294 21.92 52.945 0 0.242-0.133 0.444-0.139 0.686v95.036h62.561v-95.722c0-20.606 8.355-39.275 21.831-52.847 0.041-0.041 0.052-0.098 0.092-0.139 0.023-0.022 0.050-0.034 0.072-0.058 3.405-3.403 7.128-6.484 11.133-9.188 3.863-2.619 7.961-4.794 12.211-6.631 0.184-0.081 0.342-0.205 0.527-0.283 4.255-1.8 8.692-3.136 13.233-4.116 0.3-0.064 0.567-0.202 0.866-0.263 4.883-0.992 9.894-1.523 14.991-1.523 0.047 0 0.047 0 0.092 0 5.092 0 10.098 0.528 14.98 1.511 1.209 0.245 2.305 0.756 3.491 1.059 3.603 0.914 7.197 1.864 10.609 3.3 1.252 0.528 2.348 1.319 3.563 1.909 3.136 1.527 6.286 3.030 9.2 4.997 3.262 2.197 6.206 4.797 9.080 7.467 0.687 0.638 1.489 1.105 2.155 1.772 0.020 0.020 0.027 0.052 0.047 0.072 12.409 12.45 20.155 29.314 21.416 47.934 0.253 1.713 1.016 3.242 1.016 5.025v100.43h24.369c19.569 0 35.445 15.878 35.445 35.447v373.639c0 19.569-15.877 35.445-35.445 35.445zM341.161 536.316h341.653v-302.747h-24.369c-19.569 0-35.447-15.877-35.447-35.445v-133.364c-0.017-0.248-0.131-0.466-0.144-0.716-2.561-1.469-5.316-2.642-7.425-4.752-0.011 0.012-0.028 0.017-0.041 0.030-0.744 0.75-1.205 1.777-1.205 2.925v131.169c0 19.569-15.878 35.447-35.447 35.447h-133.455c-19.569 0-35.445-15.878-35.445-35.447v-129.617c-2.377-1.417-4.973-2.481-6.947-4.459-0.014 0.014-0.037 0.020-0.052 0.034-0.723 0.744-1.194 1.745-1.194 2.873 0 1.133-0.542 2.091-0.647 3.198v132.678c0 19.569-15.877 35.445-35.445 35.445h-24.392v302.747zM705.892 857.131c8.953 17.4 2.122 38.77-15.278 47.747-17.538 8.908-38.861 2.077-47.769-15.3l-17.203-33.413c-7.369 3.608-14.473 7.545-22.27 10.456-4.095 1.506-8.397 2.259-12.566 3.555-24.833 7.859-51.066 13.009-78.808 13.009-27.631 0-53.762-5.123-78.516-12.927-4.272-1.32-8.677-2.1-12.877-3.644-7.792-2.909-14.9-6.845-22.261-10.453l-17.239 33.439c-8.953 17.422-30.416 24.23-47.745 15.253-17.4-8.953-24.231-30.347-15.255-47.747l20.975-40.684c-42.431-39.641-68.812-93.577-68.812-153.138 0-19.57 15.877-35.447 35.445-35.447h412.547c19.569 0 35.445 15.877 35.445 35.447 0 59.552-26.37 113.48-68.783 153.117l20.969 40.728zM390.603 767.908c6.969 6.153 14.537 11.4 22.3 16.275 9.825 6.144 20.242 11.573 31.463 15.813 0.422 0.162 0.805 0.416 1.227 0.575 20.427 7.545 42.866 11.723 66.406 11.723 23.545 0 45.992-4.178 66.419-11.727 0.214-0.081 0.406-0.211 0.62-0.291 11.472-4.291 22.081-9.858 32.103-16.131 7.752-4.875 15.311-10.114 22.269-16.264 21.303-18.816 36.505-42.663 43.983-69.15h-330.809c7.481 26.495 22.7 50.356 44.020 69.177zM623.752 730.592c1.905 4.35 3.033 9.106 3.033 14.155 0 5.117-1.183 9.92-3.136 14.314-1.728 4.462-4.292 8.667-7.895 12.27-3.614 3.614-7.841 6.177-12.32 7.905-4.378 1.938-9.167 3.103-14.264 3.103s-9.886-1.166-14.264-3.103c-4.481-1.728-8.706-4.291-12.32-7.905-3.63-3.628-6.186-7.872-7.912-12.369-1.925-4.367-3.073-9.139-3.073-14.216 0-5.011 1.094-9.744 2.972-14.069 1.67-4.402 4.194-8.555 7.691-12.147 0.048-0.048 0.13-0.069 0.178-0.119 0.064-0.066 0.081-0.164 0.145-0.227 3.509-3.511 7.575-6.095 11.909-7.827 0.173-0.072 0.336-0.095 0.508-0.167 4.35-1.906 9.112-3.038 14.167-3.038 5.053 0 9.816 1.131 14.166 3.038 0.173 0.072 0.334 0.095 0.508 0.167 4.336 1.731 8.4 4.316 11.911 7.827 0.064 0.062 0.081 0.161 0.144 0.227 0.050 0.050 0.13 0.070 0.18 0.119 3.472 3.569 6 7.688 7.675 12.061zM472.341 745.142c-0.055 4.898-1.095 9.533-2.95 13.762-0.075 0.181-0.102 0.358-0.18 0.539-1.73 4.325-4.314 8.383-7.82 11.887-0.056 0.058-0.144 0.069-0.202 0.127-0.061 0.061-0.083 0.162-0.144 0.22-3.577 3.484-7.719 6.003-12.116 7.67-4.33 1.886-9.075 2.991-14.1 2.991-5.097 0-9.886-1.166-14.264-3.103-4.48-1.728-8.706-4.291-12.32-7.905s-6.177-7.841-7.905-12.32c-1.938-4.378-3.103-9.167-3.103-14.264 0-5.025 1.105-9.767 2.991-14.097 1.667-4.394 4.189-8.536 7.67-12.119 0.058-0.061 0.159-0.083 0.22-0.144 0.058-0.058 0.069-0.144 0.127-0.202 3.505-3.505 7.566-6.091 11.891-7.82 0.181-0.075 0.352-0.105 0.533-0.177 4.35-1.906 9.109-3.034 14.161-3.034 5.056 0 9.816 1.131 14.169 3.041 0.136 0.055 0.278 0.048 0.412 0.106 4.22 1.673 8.187 4.183 11.634 7.538 0.116 0.113 0.164 0.3 0.277 0.416 0.116 0.113 0.303 0.161 0.416 0.277 2.839 2.922 4.711 6.358 6.344 9.852 0.345 0.706 0.937 1.203 1.242 1.933 0.037 0.095 0.041 0.191 0.075 0.284 1.902 4.345 3.023 9.102 3.023 14.147 0 0.003-0.003 0.009-0.003 0.011 0 0.003 0.003 0.009 0.003 0.012 0 0.12-0.078 0.248-0.081 0.372z" />
<glyph unicode="&#xe902;" glyph-name="appartment" d="M929.169 58.297h-41.753v584.928c0 0.953-0.469 1.75-0.541 2.684-0.587 12.578-7.341 24.534-19.456 30.462l-244.491 119.5v76.187c0 0.934-0.459 1.719-0.531 2.634-0.134 3.559-0.294 7.147-1.559 10.681-6.678 18.513-27.184 28.184-45.556 21.503l-408.078-146.441c-14.959-5.381-23.609-19.747-23.069-34.841h-0.522v-667.3h-48.781c-19.672 0-35.631-15.959-35.631-35.631s15.959-35.631 35.631-35.631h834.338c19.672 0 35.631 15.959 35.631 35.631s-15.959 35.631-35.631 35.631zM816.156 622.122v-563.825h-193.228v658.272l193.228-94.447zM214.872 701.819l336.794 120.875v-764.397h-336.794v643.522zM281.959 514.484h66.969v-71.262h-66.969v71.262zM281.959 407.222h66.969v-71.262h-66.969v71.262zM281.959 299.959h66.969v-71.259h-66.969v71.259zM281.959 192.744h66.969v-71.259h-66.969v71.259zM416.175 621.722h66.991v-71.259h-66.991v71.259zM416.175 514.484h66.991v-71.262h-66.991v71.262zM416.175 407.222h66.991v-71.262h-66.991v71.262zM416.175 299.959h66.991v-71.259h-66.991v71.259zM416.175 192.744h66.991v-71.259h-66.991v71.259zM686.022 514.484h66.991v-71.262h-66.991v71.262zM686.022 407.222h66.991v-71.262h-66.991v71.262zM686.022 299.959h66.991v-71.259h-66.991v71.259zM686.022 192.744h66.991v-71.259h-66.991v71.259z" />
<glyph unicode="&#xe903;" glyph-name="apple" d="M896.753 310.987c-54.509 25.178-90.066 77.291-92.834 136.091-4.059 85.963 65.947 135.425 68.9 137.5 15.588 10.766 19.969 31.887 9.916 47.938-12.544 20.084-60.416 86.537-148.822 98.712-10.778 1.456-21.697 1.944-32.687 1.581 32.284 62.837 24.875 123.15 19.5 147.772-3.969 18.122-21.078 30.159-39.616 27.509-22.137-3.184-98.275-19.188-147.922-92.466-30.394-44.831-37.1-90.756-36.572-124.894-3.128 1.928-6.084 3.544-9.569 5.841-15.15 9.984-34.009 22.437-62.697 28.962-61.081 13.972-114.162-11.069-139.666-23.106-116.906-54.878-157.281-177.366-166.875-213.612-38.784-147.069 32.744-271.078 67.125-330.706 30.759-53.313 70.191-101.366 117.138-142.781 1.244-1.106 2.559-2.119 3.944-2.997 24.95-16.462 50.981-24.766 77.431-24.766 0.228 0 0.459 0 0.691 0 18.722 0.141 30.506 4.613 45.403 10.331 7.078 2.675 16.094 6.134 28.916 10.331 35.072 11.481 51.075 16.741 72.009 17.109 23.269-0.184 43.375-5.166 53.522-8.488 9.175-3.044 16.141-6.225 22.503-9.131 12.406-5.625 26.472-11.991 47.641-14.709 17.341-2.259 35.047-1.431 57.184 3.319 37.216 12.684 91.034 39.2 136 93.297 58.522 70.466 68.991 148.219 70.006 188.341 0.369 14.113-7.747 27.119-20.569 33.022zM591.825 775.872c18.356 27.116 42.613 42.587 62.766 51.328-0.922-21.628-6.409-48.953-23.841-75.588-18.494-28.178-42.844-44.434-63.366-53.725 0.553 22.113 5.903 50.638 24.441 77.984zM792.806 134.913c-34.406-41.459-75.772-61.797-100.028-70.375-10.194-2.075-20.2-2.491-29.656-1.247-10.606 1.337-16.925 4.197-27.394 8.947-8.347 3.781-17.478 7.887-29.606 11.9-17.662 5.809-45.931 12.45-76.9 12.034-31.591-0.553-54.65-8.116-92.809-20.613-14.253-4.659-24.259-8.488-32.144-11.484-13.053-4.981-15.034-5.625-20.594-5.672-10.397 0-24.141 3.919-36.709 11.806-40.328 35.925-74.178 77.384-100.672 123.316-31.938 55.341-91.334 158.322-60 277.188 5.419 20.453 37.056 124.678 128.506 167.612 21.169 9.963 56.562 26.566 93.85 18.125 16.116-3.666 26.4-10.444 39.381-19 15.588-10.284 34.981-23.081 64.15-27.784 42.797-6.987 88.037 6.041 130.375 36.294 14.756 7.794 45.056 20.269 81.672 15.081 36.894-5.075 63.597-25.597 79.969-42.728-30.806-31.059-74.987-90.712-71.022-174.553 3.597-77.016 45.794-146.053 111.787-185.438-3.828-32.881-16.094-80.059-52.156-123.409z" />
<glyph unicode="&#xe904;" glyph-name="arrow-circle-down" d="M512 908.8c-254.078 0-460.8-206.722-460.8-460.8s206.722-460.8 460.8-460.8 460.8 206.722 460.8 460.8-206.722 460.8-460.8 460.8zM512 58.094c-214.984 0-389.906 174.922-389.906 389.906s174.922 389.906 389.906 389.906 389.906-174.922 389.906-389.906-174.922-389.906-389.906-389.906zM648.2 391.647l-99.047-101.163v401.878c0 19.569-15.875 35.444-35.447 35.444-19.569 0-35.444-15.875-35.444-35.444v-404.431l-102.994 100.853c-13.984 13.616-36.416 13.522-50.147-0.553-13.684-13.984-13.453-36.416 0.531-50.125l163.247-159.828c1.362-1.331 3.084-1.922 4.591-2.991 2.197-1.569 4.219-3.356 6.747-4.397 4.312-1.772 8.878-2.722 13.469-2.722 4.644 0 9.278 0.941 13.634 2.756 4.366 1.822 8.266 4.481 11.541 7.794 0.050 0.050 0.116 0.062 0.166 0.113l159.831 163.247c13.706 13.984 13.428 36.416-0.556 50.122-13.891 13.616-36.322 13.478-50.122-0.553z" />
<glyph unicode="&#xe905;" glyph-name="arrow-circle-left" d="M972.8 448c0 254.078-206.722 460.8-460.8 460.8s-460.8-206.722-460.8-460.8 206.722-460.8 460.8-460.8 460.8 206.722 460.8 460.8zM122.094 448c0 214.984 174.922 389.906 389.906 389.906s389.906-174.922 389.906-389.906-174.922-389.906-389.906-389.906-389.906 174.922-389.906 389.906zM455.647 311.8l-101.163 99.047h401.878c19.569 0 35.444 15.875 35.444 35.447 0 19.569-15.875 35.444-35.444 35.444h-404.431l100.853 102.994c13.616 13.984 13.522 36.416-0.553 50.147-13.984 13.684-36.416 13.453-50.125-0.531l-159.828-163.247c-1.331-1.363-1.922-3.084-2.991-4.591-1.569-2.197-3.356-4.219-4.397-6.747-1.772-4.312-2.722-8.878-2.722-13.469 0-4.644 0.941-9.278 2.756-13.634 1.822-4.366 4.481-8.266 7.794-11.541 0.050-0.050 0.062-0.116 0.113-0.166l163.247-159.831c13.984-13.706 36.416-13.428 50.122 0.556 13.616 13.891 13.478 36.322-0.553 50.122z" />
<glyph unicode="&#xe906;" glyph-name="arrow-circle-right" d="M51.2 448c0-254.078 206.722-460.8 460.8-460.8s460.8 206.722 460.8 460.8-206.722 460.8-460.8 460.8-460.8-206.722-460.8-460.8zM901.906 448c0-214.984-174.922-389.906-389.906-389.906s-389.906 174.922-389.906 389.906 174.922 389.906 389.906 389.906 389.906-174.922 389.906-389.906zM568.353 584.2l101.163-99.047h-401.878c-19.569 0-35.444-15.875-35.444-35.447 0-19.569 15.875-35.444 35.444-35.444h404.431l-100.853-102.994c-13.616-13.984-13.522-36.416 0.553-50.147 13.984-13.684 36.416-13.453 50.125 0.531l159.828 163.247c1.331 1.362 1.922 3.084 2.991 4.591 1.569 2.197 3.356 4.219 4.397 6.747 1.772 4.312 2.722 8.878 2.722 13.469 0 4.644-0.941 9.278-2.756 13.634-1.822 4.366-4.481 8.266-7.794 11.541-0.050 0.050-0.062 0.116-0.113 0.166l-163.247 159.831c-13.984 13.706-36.416 13.428-50.122-0.556-13.616-13.891-13.478-36.322 0.553-50.122z" />
<glyph unicode="&#xe907;" glyph-name="arrow-circle-up" d="M512-12.8c254.078 0 460.8 206.722 460.8 460.8s-206.722 460.8-460.8 460.8-460.8-206.722-460.8-460.8 206.722-460.8 460.8-460.8zM512 837.906c214.984 0 389.906-174.922 389.906-389.906s-174.922-389.906-389.906-389.906-389.906 174.922-389.906 389.906 174.922 389.906 389.906 389.906zM375.8 504.353l99.047 101.163v-401.878c0-19.569 15.875-35.444 35.447-35.444 19.569 0 35.444 15.875 35.444 35.444v404.431l102.994-100.853c13.984-13.616 36.416-13.522 50.147 0.553 13.684 13.984 13.453 36.416-0.531 50.125l-163.247 159.828c-1.362 1.331-3.084 1.922-4.591 2.991-2.197 1.569-4.219 3.356-6.747 4.397-4.312 1.772-8.878 2.722-13.469 2.722-4.644 0-9.278-0.941-13.634-2.756-4.366-1.822-8.266-4.481-11.541-7.794-0.050-0.050-0.116-0.062-0.166-0.113l-159.831-163.247c-13.706-13.984-13.428-36.416 0.556-50.122 13.891-13.616 36.322-13.478 50.122 0.553z" />
<glyph unicode="&#xe908;" glyph-name="arrow-down" d="M302.638 181.35l184.25-184.275c3.266-3.266 7.188-5.856 11.522-7.653 8.681-3.597 18.456-3.595 27.134 0.002 4.334 1.797 8.253 4.388 11.519 7.653l184.275 184.275c13.863 13.863 13.863 36.316 0 50.175-6.931 6.931-16.009 10.397-25.087 10.397s-18.156-3.466-25.087-10.397l-123.703-123.703v765.928c0 19.588-15.894 35.481-35.484 35.48-19.588 0-35.481-15.894-35.481-35.481v-765.922l-123.681 123.697c-6.931 6.931-15.988 10.397-25.087 10.397-9.103 0-18.156-3.466-25.087-10.397-13.863-13.859-13.863-36.312 0-50.175z" />
<glyph unicode="&#xe909;" glyph-name="arrow-left" d="M245.359 657.328l-184.275-184.25c-3.266-3.266-5.856-7.188-7.653-11.522-3.597-8.681-3.597-18.456 0-27.134 1.797-4.334 4.388-8.253 7.653-11.519l184.275-184.275c13.863-13.863 36.316-13.863 50.175 0 6.931 6.931 10.397 16.009 10.397 25.087s-3.466 18.156-10.397 25.087l-123.703 123.703h765.928c19.588 0 35.481 15.894 35.481 35.484 0 19.588-15.894 35.481-35.481 35.481h-765.922l123.697 123.681c6.931 6.931 10.397 15.988 10.397 25.087 0 9.103-3.466 18.156-10.397 25.087-13.859 13.863-36.313 13.863-50.175 0z" />
<glyph unicode="&#xe90a;" glyph-name="arrow-right" d="M778.616 238.628l184.275 184.25c3.266 3.266 5.856 7.188 7.653 11.522 3.597 8.681 3.597 18.456 0 27.134-1.797 4.334-4.388 8.253-7.653 11.519l-184.275 184.275c-13.863 13.863-36.316 13.863-50.175 0-6.931-6.931-10.397-16.009-10.397-25.087s3.466-18.156 10.397-25.087l123.703-123.703h-765.928c-19.588 0-35.481-15.894-35.481-35.484 0-19.588 15.894-35.481 35.481-35.481h765.922l-123.697-123.681c-6.931-6.931-10.397-15.988-10.397-25.087 0-9.103 3.466-18.156 10.397-25.087 13.859-13.863 36.313-13.863 50.175 0z" />
<glyph unicode="&#xe90b;" glyph-name="arrow-up" d="M721.337 714.606l-184.25 184.275c-3.266 3.266-7.188 5.856-11.522 7.653-8.681 3.597-18.456 3.597-27.134 0-4.334-1.797-8.253-4.388-11.519-7.653l-184.275-184.275c-13.863-13.863-13.863-36.316 0-50.175 6.931-6.931 16.009-10.397 25.087-10.397s18.156 3.466 25.087 10.397l123.703 123.703v-765.928c0-19.588 15.894-35.481 35.484-35.481 19.588 0 35.481 15.894 35.481 35.481v765.922l123.681-123.697c6.931-6.931 15.988-10.397 25.087-10.397 9.103 0 18.156 3.466 25.087 10.397 13.863 13.859 13.863 36.313 0 50.175z" />
<glyph unicode="&#xe90c;" glyph-name="asterisk" d="M918.306 576.959c-8.183 17.577-28.983 25.303-46.674 16.983l-324.524-151.356v358.098c0 19.383-15.726 35.108-35.108 35.108s-35.108-15.726-35.108-35.108v-358.093l-324.547 151.351c-17.623 8.274-38.446 0.594-46.651-16.983s-0.594-38.468 16.983-46.651l329.050-153.459-256.73-256.71c-13.714-13.714-13.714-35.931 0-49.646 6.857-6.857 15.84-10.286 24.823-10.286s17.966 3.429 24.823 10.286l267.359 267.336 267.336-267.336c6.857-6.857 15.817-10.286 24.823-10.286s17.966 3.429 24.823 10.286c13.714 13.714 13.714 35.931 0 49.646l-256.702 256.702 329.067 153.468c17.554 8.183 25.143 29.074 16.96 46.651z" />
<glyph unicode="&#xe90d;" glyph-name="badge" d="M935.409 138.030l-84.247 180.664c-0.017 0.037-0.011 0.080-0.028 0.117l-49.753 106.638c-0.003 0.009-0.016 0.014-0.017 0.023l-10.881 23.319c23.039 44.080 35.359 93.366 35.359 144.633 0 53.548-13.472 104.927-38.556 150.486-0.406 0.747-0.897 1.439-1.309 2.183-4.187 7.463-8.534 14.839-13.352 21.961-23.317 34.995-53.492 64.989-88.58 88.175-4.223 2.825-8.608 5.27-12.936 7.867-3.887 2.308-7.684 4.75-11.681 6.894-7.82 4.241-15.817 8.011-23.902 11.533-0.725 0.311-1.417 0.686-2.144 0.992-113.953 48.634-251.063 26.752-343.866-66.086-92.817-92.817-114.694-229.898-66.073-343.83 0.334-0.791 0.741-1.544 1.081-2.334 3.061-7.009 6.139-14.012 9.739-20.827l-61.375-131.627c-0.003-0.005 0-0.008-0.003-0.014l-84.297-180.767c-6.069-13.016-3.692-28.384 6-38.955 9.692-10.569 24.808-14.261 38.238-9.369l122.33 44.537 45.045-123.736c4.892-13.477 17.423-22.661 31.755-23.261 0.53-0.047 1.037-0.047 1.545-0.047 13.731 0 26.284 7.939 32.123 20.445l127.959 274.411c6.652-0.422 13.298-0.952 19.961-0.952 5.655 0 11.294 0.505 16.939 0.808l127.914-274.267c5.861-12.506 18.414-20.445 32.122-20.445 0.508 0 1.016 0 1.569 0.047 14.308 0.6 26.816 9.784 31.755 23.261l44.998 123.736 122.306-44.537c13.477-4.892 28.569-1.2 38.261 9.369s12.047 25.939 6 38.955zM400.173 381.439c-7.030 3.7-14.297 7.009-20.898 11.359-12.878 8.616-25.177 18.455-36.542 29.811-0.548 0.548-1.284 0.73-1.858 1.236-0.505 0.573-0.687 1.309-1.234 1.856-11.331 11.331-21.136 23.6-29.741 36.433-4.75 7.206-8.425 15.102-12.4 22.811-2.998 5.734-6.52 11.262-9.023 17.175-11.931 28.619-18.644 59.939-18.644 92.827 0 133.544 108.645 242.189 242.167 242.189 32.852 0 64.137-6.706 92.73-18.614 6.269-2.652 12.139-6.358 18.208-9.563 7.373-3.839 14.953-7.333 21.859-11.884 12.856-8.611 25.142-18.43 36.492-29.769 0.534-0.534 1.247-0.709 1.803-1.2 0.508-0.578 0.692-1.319 1.244-1.87 11.059-11.053 20.798-23.067 29.377-35.745 6.944-10.453 12.75-21.672 18.028-33.175 1.028-2.205 2.484-4.209 3.445-6.444 12.205-28.902 18.98-60.634 18.98-93.925 0-133.522-108.645-242.167-242.166-242.167-32.827 0-64.088 6.705-92.663 18.594-6.598 2.791-12.784 6.664-19.164 10.066zM337.541 115.183l-27.9 76.614c-6.692 18.416-27 27.831-45.416 21.184l-75.23-27.369 48.102 103.142c0.008 0.019 0.028 0.037 0.037 0.056l44.33 95.083c17.411-19.008 36.958-35.983 58.542-50.239 4.139-2.766 8.437-5.156 12.678-7.706 3.963-2.358 7.834-4.847 11.908-7.030 7.848-4.256 15.864-8.037 23.981-11.57 0.687-0.295 1.336-0.647 2.023-0.937 10.116-4.319 20.373-8.164 30.809-11.366l-83.866-179.862zM759.797 212.981c-18.555 6.6-38.723-2.814-45.461-21.184l-27.877-76.614-83.438 178.939c48.141 14.311 93.487 40.416 131.436 78.366 3.128 3.123 5.873 6.516 8.85 9.75l91.719-196.625-75.23 27.369z" />
<glyph unicode="&#xe90e;" glyph-name="balance" d="M972.223 421.034c0.083 0.989 0.577 1.841 0.577 2.85 0 0.072-0.041 0.13-0.041 0.202-0.008 1.963-0.842 3.895-1.186 5.863-0.484 2.687-0.642 5.486-1.695 7.93-0.020 0.048-0.012 0.103-0.031 0.153l-129.994 298.9 69.716 12.292c19.292 3.416 32.17 21.784 28.755 41.077-3.323 19.247-21.6 32.077-41.031 28.753l-270.467-47.688c-6.041 12.43-13.688 24.273-23.994 34.581-15.917 15.902-35.147 26.152-55.384 31.897v35.509c0 19.57-15.878 35.447-35.447 35.447s-35.447-15.877-35.447-35.447v-35.575c-27.273-7.745-52.294-23.989-69.784-48.955-0.022-0.033-0.022-0.072-0.045-0.105-12.613-18.042-19.616-38.666-21.794-60.008l-270.522-47.703c-19.269-3.416-32.147-21.784-28.755-41.077 3.047-17.192 18-29.284 34.87-29.284 2.053 0 4.13 0.161 6.208 0.53l50.328 8.877-122.928-282.592c-0.023-0.055-0.012-0.113-0.034-0.167-0.848-1.975-0.892-4.269-1.373-6.409-0.548-2.481-1.486-4.923-1.495-7.402 0-0.052-0.028-0.092-0.028-0.144 0-1.008 0.491-1.853 0.573-2.839-0.083-0.986-0.573-1.831-0.573-2.839 0-63.297 32.437-119.1 81.508-151.869 8.131-5.506 16.855-9.889 25.711-13.977 1.566-0.714 2.939-1.747 4.525-2.419 22.356-9.552 46.567-14.736 71.648-14.736 48.739 0 94.5 18.923 128.861 53.308 2.164 2.164 3.381 4.816 4.87 7.333 29.53 32.452 48.023 75.139 48.023 122.359 0 1.008-0.491 1.853-0.575 2.839 0.084 0.986 0.575 1.831 0.575 2.839 0 0.058-0.033 0.103-0.033 0.158-0.011 2.094-0.87 4.156-1.262 6.256-0.488 2.569-0.623 5.25-1.633 7.591-0.017 0.037-0.009 0.080-0.027 0.117l-130.97 301.169 114.678 20.223c4.541-9.311 10.275-17.977 17.056-26.033 0.272-0.32 0.522-0.652 0.797-0.969 2.134-2.488 3.877-5.228 6.216-7.567 2.631-2.631 5.666-4.555 8.464-6.908 0.481-0.408 0.972-0.791 1.459-1.192 12.63-10.312 26.602-17.873 41.464-22.623 1.333-0.442 2.656-0.883 3.997-1.278v-534.191h-154.177c-19.569 0-35.445-15.877-35.445-35.445 0-19.57 15.877-35.447 35.445-35.447h379.27c19.569 0 35.445 15.877 35.445 35.447 0 19.569-15.877 35.445-35.445 35.445h-154.2v534.331c1.219 0.347 2.359 0.933 3.57 1.313 1.084 0.355 2.195 0.586 3.273 0.967 1.55 0.539 3.214 0.808 4.734 1.402 0.669 0.269 1.302 0.63 1.967 0.909 1.087 0.452 2.080 1.055 3.15 1.538 4.373 1.93 8.536 4.116 12.689 6.542 2.1 1.231 4.213 2.397 6.238 3.744 0.966 0.648 1.784 1.469 2.734 2.144 0.372 0.263 0.706 0.573 1.075 0.842 4.267 3.069 8.481 6.075 12.388 9.706 1.053 0.981 2.016 2.048 3.038 3.069 0.355 0.355 0.628 0.786 0.981 1.142 1.375 1.408 2.547 3.033 3.863 4.509 3.352 3.744 7.13 6.944 10.084 11.158 0.022 0.031 0.022 0.072 0.045 0.103 12.869 18.412 19.609 39.098 21.747 60.009l93.358 16.459-121.75-279.948c-0.020-0.050-0.012-0.105-0.033-0.153-1.052-2.444-1.211-5.242-1.695-7.93-0.344-1.967-1.177-3.9-1.186-5.863 0-0.072-0.041-0.13-0.041-0.202 0-1.009 0.494-1.861 0.577-2.85-0.083-0.989-0.577-1.841-0.577-2.85 0-63.553 32.73-119.5 82.122-152.213 4.789-3.202 9.967-5.441 14.975-8.141 5.22-2.795 10.197-5.959 15.703-8.247 9.447-3.958 19.203-6.75 29.072-9.048 1.45-0.333 2.775-0.955 4.238-1.252 12.294-2.553 24.753-4.053 37.261-4.053 46.661 0 93.322 17.769 128.861 53.261 2.178 2.178 3.409 4.844 4.903 7.381 29.511 32.447 47.989 75.113 47.989 122.311 0 1.009-0.494 1.861-0.577 2.85zM790.216 306.492c-7.7 0-15.181 0.777-22.405 2.195-2.867 0.609-5.634 1.661-8.452 2.498-3.592 1.006-7.23 1.9-10.653 3.239-13.25 5.423-25.667 13.459-36.398 24.191-0.773 0.773-1.797 1.053-2.619 1.739-12.725 13.186-21.838 29.68-26.778 48.106h214.655c-12.775-47.647-55.125-81.969-107.35-81.969zM697.184 459.331l93.055 213.969 93.055-213.969h-186.109zM517.761 771.025c3.658-0.372 7.166-1.077 10.569-2.083 4.241-1.339 8.397-2.991 12.341-5.386 2.264-1.327 4.448-2.722 6.491-4.341 3.925-3.061 7.084-6.689 9.98-10.494 1.611-2.175 3.214-4.322 4.5-6.731 1.875-3.516 3.191-7.313 4.319-11.214 0.984-3.483 1.797-7.016 2.12-10.758 0.327-3.645 0.159-7.222-0.195-10.797-0.412-3.972-1.106-7.825-2.266-11.495-0.931-2.908-2.278-5.645-3.68-8.383-2.072-3.908-4.35-7.716-7.394-11.148-1.991-2.281-4.192-4.292-6.502-6.208-3.347-2.856-6.955-5.164-10.734-7.116-3.083-1.53-6.308-2.753-9.675-3.722-3.461-0.975-6.972-1.783-10.687-2.106-1.061-0.095-2.059 0.098-3.109 0.061-0.644 0.034-1.186 0.372-1.838 0.372-0.536 0-0.981-0.283-1.511-0.305-1.52 0.034-3.047-0.061-4.537 0.089-3.508 0.375-6.886 1.041-10.161 2.002-4.294 1.339-8.5 3.014-12.488 5.428-2.231 1.311-4.388 2.689-6.403 4.284-3.972 3.086-7.163 6.753-10.084 10.602-1.552 2.102-3.095 4.18-4.347 6.498-1.909 3.559-3.295 7.453-4.452 11.492-0.964 3.433-1.769 6.914-2.089 10.598-0.334 3.756-0.15 7.394 0.22 11.008 0.437 4.095 1.108 8.083 2.336 11.853 0.883 2.677 2.109 5.159 3.369 7.652 2.191 4.169 4.645 8.191 7.864 11.753 1.725 1.944 3.63 3.692 5.622 5.387 3.487 3.061 7.319 5.423 11.288 7.486 3.102 1.541 6.358 2.802 9.802 3.787 3.466 0.972 6.975 1.789 10.7 2.109 3.587 0.325 7.112 0.164 10.633-0.177zM285.8 218.991c-41.813-20.85-96.072-14.809-129.947 19.102-0.788 0.788-1.825 1.073-2.664 1.772-12.702 13.17-21.8 29.636-26.741 48.028h214.65c-8.133-30.27-28.217-54.845-55.298-68.902zM140.722 358.784l93.045 213.931 93.075-213.931h-186.12z" />
<glyph unicode="&#xe90f;" glyph-name="ban" d="M512 908.8c-254.077 0-460.8-206.723-460.8-460.8s206.723-460.8 460.8-460.8 460.8 206.723 460.8 460.8-206.723 460.8-460.8 460.8zM512 837.908c94.763 0 181.682-34.053 249.329-90.479l-548.758-548.758c-56.426 67.647-90.479 154.566-90.479 249.329 0 214.985 174.923 389.908 389.908 389.908zM512 58.092c-94.751 0-181.664 34.044-249.306 90.456l548.758 548.758c56.412-67.641 90.456-154.555 90.456-249.306 0-214.985-174.923-389.908-389.908-389.908z" />
<glyph unicode="&#xe910;" glyph-name="bars" d="M937.744 705.081h-851.489c-19.577 0-35.46 15.883-35.46 35.46s15.883 35.459 35.46 35.459h851.489c19.577 0 35.459-15.883 35.459-35.459s-15.883-35.46-35.459-35.46zM937.744 412.541h-851.489c-19.577 0-35.46 15.883-35.46 35.459s15.883 35.459 35.46 35.459h851.489c19.577 0 35.459-15.883 35.459-35.459s-15.883-35.459-35.459-35.459zM937.744 120h-851.489c-19.577 0-35.46 15.883-35.46 35.459s15.883 35.46 35.46 35.46h851.489c19.577 0 35.459-15.883 35.459-35.46s-15.883-35.459-35.459-35.459z" />
<glyph unicode="&#xe911;" glyph-name="bars-circle" d="M512-12.8c-254.077 0-460.8 206.723-460.8 460.8s206.723 460.8 460.8 460.8 460.8-206.723 460.8-460.8-206.723-460.8-460.8-460.8zM512 837.908c-214.985 0-389.908-174.923-389.908-389.908s174.923-389.908 389.908-389.908 389.908 174.923 389.908 389.908-174.923 389.908-389.908 389.908zM752.738 577.969h-481.477c-19.569 0-35.446 15.877-35.446 35.446s15.877 35.446 35.446 35.446h481.477c19.569 0 35.446-15.877 35.446-35.446s-15.877-35.446-35.446-35.446zM752.738 412.554h-481.477c-19.569 0-35.446 15.877-35.446 35.446s15.877 35.446 35.446 35.446h481.477c19.569 0 35.446-15.877 35.446-35.446s-15.877-35.446-35.446-35.446zM752.738 247.138h-481.477c-19.569 0-35.446 15.877-35.446 35.446s15.877 35.446 35.446 35.446h481.477c19.569 0 35.446-15.877 35.446-35.446s-15.877-35.446-35.446-35.446z" />
<glyph unicode="&#xe912;" glyph-name="basket" d="M882.244 630.764c-1.386 18.531-16.821 32.833-35.398 32.833h-156.147v67.052c0 49.068-19.917 93.537-52.039 125.862-0.139 0.142-0.176 0.338-0.318 0.479-1.222 1.222-2.726 2.030-3.98 3.209-32.030 30.262-74.931 49.148-122.361 49.148-47.548 0-90.554-18.955-122.601-49.339-1.178-1.112-2.591-1.869-3.74-3.018-0.124-0.124-0.159-0.297-0.283-0.425-32.148-32.328-52.074-76.823-52.074-125.917v-67.052h-156.124c-18.577 0-33.988-14.302-35.398-32.833l-45.657-605.966c-0.739-9.843 2.657-19.594 9.381-26.802 6.701-7.255 16.151-11.368 26.017-11.368h760.981c9.889 0 19.316 4.113 26.017 11.368 6.701 7.209 10.12 16.959 9.381 26.802l-45.657 605.966zM404.283 730.649c0 30.621 12.98 58.136 33.558 77.768 40.276 38.228 107.499 38.306 147.933 0.312 20.786-19.648 33.945-47.283 33.945-78.079v-67.052h-215.436v67.052zM673.324 57.608h-503.539l40.319 535.009h123.199v-34.982c0-19.594 15.897-35.49 35.49-35.49s35.49 15.897 35.49 35.49v34.982h215.436v-34.982c0-19.594 15.897-35.49 35.49-35.49s35.49 15.897 35.49 35.49v34.982h123.245l40.296-535.009h-180.916z" />
<glyph unicode="&#xe913;" glyph-name="basket-alt" d="M937.354 536.107h-369.511l-185.143 333.162c-9.531 17.146-31.177 23.262-48.208 13.777l-106.223-59.031c-17.123-9.508-23.285-31.108-13.777-48.208l133.206-239.7h-261.052c-19.569 0-35.446-15.877-35.446-35.446v-121.523c0-19.569 15.877-35.446 35.446-35.446h84.937l40.001-304.385c2.331-17.631 17.354-30.831 35.146-30.831h530.562c17.769 0 32.815 13.2 35.123 30.831l39.981 304.385h84.958c19.569 0 35.446 15.877 35.446 35.446v121.523c0 19.569-15.877 35.446-35.446 35.446zM901.908 465.215v-50.631h-266.533l-28.137 50.631h294.669zM529.593 354.72l-12.698 22.852c3.522-1.232 7.116-2.357 10.705-2.357 9.462 0 18.415 3.785 25.015 10.431 4.5 4.468 7.082 10.315 8.671 16.362l12.603-22.676-44.296-24.612zM337.942 803.843l200.054-359.931c-12.222 3.407-26.282 1.113-35.458-7.728-4.702-5.013-7.125-11.034-8.487-17.504l-200.36 360.574 44.25 24.588zM415.23 414.584h-293.137v50.631h265.001l28.137-50.631zM746.185 79.369h-468.369l-34.728 264.323h211.538l30.213-54.369c6.485-11.677 18.577-18.231 31.038-18.231 5.815 0 11.723 1.431 17.169 4.477l106.246 59.031c4.261 2.365 7.835 5.487 10.664 9.092h130.976l-34.748-264.323zM355.238 236.661c-19.569 0-35.446-15.877-35.446-35.446v-54.6c0-19.569 15.877-35.446 35.446-35.446s35.446 15.877 35.446 35.446v54.6c0 19.569-15.877 35.446-35.446 35.446zM512 236.661c-19.569 0-35.446-15.877-35.446-35.446v-54.6c0-19.569 15.877-35.446 35.446-35.446s35.446 15.877 35.446 35.446v54.6c0 19.569-15.877 35.446-35.446 35.446zM633.292 201.215v-54.6c0-19.569 15.877-35.446 35.446-35.446s35.446 15.877 35.446 35.446v54.6c0 19.569-15.877 35.446-35.446 35.446s-35.446-15.877-35.446-35.446z" />
<glyph unicode="&#xe914;" glyph-name="battery" d="M290.136 600.453h-95.325c-19.62 0-35.539-15.919-35.539-35.539v-233.848c0-19.62 15.919-35.539 35.539-35.539h95.325c19.62 0 35.539 15.919 35.539 35.539v233.848c0 19.62-15.919 35.539-35.539 35.539zM254.598 366.605h-24.248v162.77h24.248v-162.77zM498.858 600.453h-95.325c-19.62 0-35.539-15.919-35.539-35.539v-233.848c0-19.62 15.919-35.539 35.539-35.539h95.325c19.62 0 35.539 15.919 35.539 35.539v233.848c0 19.62-15.919 35.539-35.539 35.539zM463.319 366.605h-24.247v162.77h24.247v-162.77zM707.556 600.453h-95.325c-19.62 0-35.539-15.919-35.539-35.539v-233.848c0-19.62 15.919-35.539 35.539-35.539h95.325c19.62 0 35.539 15.919 35.539 35.539v233.848c0 19.62-15.919 35.539-35.539 35.539zM672.017 366.605h-24.247v162.77h24.247v-162.77zM938.467 600.453h-86.072v70.383c0 19.62-15.919 35.539-35.539 35.539h-731.323c-19.62 0-35.538-15.919-35.538-35.539v-445.647c0-19.62 15.917-35.539 35.538-35.539h731.323c19.62 0 35.539 15.919 35.539 35.539v70.338h86.072c19.62 0 35.538 15.919 35.538 35.539v233.848c0 19.62-15.917 35.539-35.538 35.539zM902.928 366.605h-86.072c-19.62 0-35.538-15.919-35.538-35.539v-70.338h-660.247v374.569h660.247v-70.383c0-19.62 15.917-35.539 35.538-35.539h86.072v-162.77z" />
<glyph unicode="&#xe915;" glyph-name="battery-empty" d="M937.353 600.055h-85.845v70.2c0 19.569-15.877 35.447-35.447 35.447h-729.414c-19.57 0-35.447-15.878-35.447-35.447v-444.484c0-19.569 15.877-35.447 35.447-35.447h729.414c19.57 0 35.447 15.878 35.447 35.447v70.153h85.845c19.57 0 35.447 15.878 35.447 35.447v233.239c0 19.569-15.877 35.445-35.447 35.445zM901.908 366.816h-85.847c-19.569 0-35.445-15.877-35.445-35.445v-70.155h-658.523v373.594h658.523v-70.2c0-19.57 15.877-35.447 35.445-35.447h85.847v-162.347z" />
<glyph unicode="&#xe916;" glyph-name="bell" d="M877.856 178.037c1.174 2.074 2.135 4.139 2.879 6.444 0.747 2.342 1.168 4.618 1.416 7.021 0.136 1.263 0.741 2.365 0.741 3.666 0 0.987-0.482 1.82-0.562 2.787-0.193 2.463-0.738 4.754-1.439 7.128-0.632 2.12-1.263 4.131-2.259 6.066-1.024 2.016-2.345 3.767-3.764 5.579-1.48 1.878-2.968 3.594-4.791 5.14-0.762 0.649-1.168 1.552-1.999 2.146-28.892 20.631-79.062 65.769-90.138 135.692-0.508 3.785-1.154 20.723-0.877 51.877 0.323 34.431 2.492 59.815 3.415 70.823 0 0.3 0.369 4.708 0.415 5.031 6.464 109.812-53.4 244.748-179.631 293.942v38.158c0 49.223-40.062 89.262-89.262 89.262-49.223 0-89.262-40.038-89.262-89.262v-38.161c-126.187-49.194-186.049-184.113-179.585-294.447 0.023-0.138 0.415-4.962 0.415-5.077 0.946-11.308 3.092-36.392 3.369-70.246 0.277-31.223-0.369-48.069-0.854-51.669-11.1-70.108-61.246-115.246-90.162-135.923-0.828-0.594-1.237-1.494-1.999-2.143-1.826-1.549-3.314-3.268-4.797-5.149-1.419-1.809-2.735-3.56-3.759-5.573-0.998-1.936-1.627-3.946-2.259-6.066-0.701-2.38-1.249-4.679-1.442-7.151-0.078-0.961-0.56-1.783-0.56-2.763 0-1.295 0.603-2.394 0.738-3.655 0.248-2.412 0.669-4.693 1.422-7.038 0.75-2.328 1.731-4.413 2.919-6.502 0.629-1.116 0.782-2.371 1.543-3.436 0.493-0.687 1.301-0.929 1.832-1.569 2.435-2.96 5.313-5.299 8.573-7.341 1.214-0.756 2.21-1.76 3.496-2.36 4.569-2.149 9.539-3.545 14.922-3.545h215.677v-52.754c0-66.046 53.723-119.769 119.769-119.769s119.769 53.723 119.769 119.769v52.754h215.677c5.38 0 10.347 1.399 14.916 3.545 1.313 0.609 2.316 1.624 3.554 2.394 3.222 2.028 6.078 4.344 8.492 7.266 0.545 0.658 1.379 0.906 1.884 1.61 0.773 1.085 0.929 2.363 1.563 3.499zM520.815 796.531c-2.977 0.19-5.787-0.384-8.743-0.3-3.009-0.087-5.853 0.499-8.888 0.3-0.929-0.061-1.676-0.568-2.582-0.695-2.337-0.043-4.656-0.127-6.972-0.239v23.942c0 10.131 8.238 18.369 18.369 18.369s18.369-8.238 18.369-18.369v-23.928c-2.334 0.11-4.667 0.193-7.018 0.237-0.888 0.124-1.624 0.626-2.536 0.684zM452.023 717.169c18.343 6.724 38.564 9.349 59.864 8.472 21.352 0.816 41.66-1.745 60.113-8.495 97.292-35.538 143.123-140.377 137.815-228.738-0.969-11.838-3.323-39.138-3.646-76.2-0.277-32.885 0.277-54.162 1.708-63.346 7.705-48.565 28.474-87.776 51.995-118.246h-495.773c23.544 30.488 44.328 69.692 52.001 118.2 1.431 9 2.008 30.323 1.731 63.392-0.3 36.438-2.585 63.462-3.946 79.385-4.985 85.177 40.869 190.015 138.138 225.577zM560.877 106.969c0-26.954-21.923-48.877-48.877-48.877s-48.877 21.923-48.877 48.877v52.754h97.754v-52.754z" />
<glyph unicode="&#xe917;" glyph-name="blackberry" d="M484.792 311.294h-104.031c-16.753 0-31.222-11.723-34.684-28.108l-27.092-128.263c-2.216-10.477 0.416-21.369 7.155-29.677s16.845-13.108 27.53-13.108h104.031c132.116 0 142.361 83.816 142.361 109.523 0 13.477-3.184 39.231-26.169 62.123-20.238 18-51.045 27.508-89.1 27.508zM457.7 183.031h-60.323l12.116 57.37h75.3c23.031 0 37.039-5.17 40.5-8.17 3.369-3.369 3.877-8.077 3.877-10.569 0-10.569 0-38.631-71.469-38.631zM620.047 520.094c-20.216 17.977-51.047 27.484-89.1 27.484h-104.031c-16.755 0-31.223-11.723-34.684-28.131l-27.070-128.261c-2.192-10.477 0.416-21.37 7.155-29.677s16.845-13.108 27.531-13.108h104.030c132.092 0 142.339 83.861 142.339 109.569 0 13.453-3.184 39.253-26.169 62.123zM503.877 419.294h-60.322l12.114 57.392h75.278c23.053 0 37.038-5.17 40.5-8.147 3.369-3.369 3.877-8.077 3.877-10.569 0-10.569 0-38.677-71.447-38.677zM446.023 584.731h104.031c132.069 0 142.314 83.839 142.314 109.547 0 23.284-8.722 44.837-26.122 62.123-20.216 17.977-51.047 27.484-89.123 27.484h-104.031c-16.753 0-31.223-11.723-34.684-28.131l-27.069-128.261c-2.216-10.455 0.416-21.347 7.153-29.631 6.739-8.308 16.847-13.131 27.531-13.131zM501.847 712.994h75.277c23.077 0 37.061-5.17 40.523-8.147 3.322-3.345 3.83-8.053 3.83-10.569 0-10.569 0-38.655-71.422-38.655h-60.323l12.116 57.37zM811.353 429.447h-104.030c-16.755 0-31.247-11.745-34.663-28.131l-27.045-128.33c-2.216-10.431 0.416-21.323 7.153-29.631 6.692-8.308 16.847-13.108 27.508-13.108h104.031c132.092 0 142.339 83.863 142.339 109.569 0 13.478-3.186 39.231-26.17 62.123-20.261 18-51.045 27.508-89.123 27.508zM784.308 301.139h-60.323l12.092 57.416h75.277c23.031 0 37.063-5.169 40.523-8.169 3.37-3.37 3.877-8.077 3.877-10.57 0-10.569 0-38.677-71.445-38.677zM946.631 638.247c-20.216 17.977-51.047 27.484-89.078 27.484h-104.030c-16.755 0-31.2-11.722-34.663-28.13l-27.092-128.263c-2.214-10.453 0.416-21.345 7.108-29.63 6.739-8.308 16.847-13.131 27.555-13.131h104.030c132.092 0 142.339 83.838 142.339 109.545 0 13.455-3.184 39.255-26.169 62.123zM830.461 537.47h-60.322l12.137 57.369h75.277c23.031 0 37.016-5.169 40.478-8.145 3.369-3.37 3.877-8.078 3.877-10.57 0-10.569 0-38.653-71.447-38.653zM306.869 520.070c-20.214 18-51.022 27.508-89.1 27.508h-104.053c-16.753 0-31.223-11.723-34.684-28.131l-27.069-128.261c-2.194-10.477 0.414-21.37 7.153-29.677s16.847-13.108 27.531-13.108h104.030c132.070 0 142.339 83.861 142.339 109.569 0 13.453-3.208 39.253-26.147 62.1zM190.677 419.294h-60.322l12.114 57.392h75.3c24.647 0 37.986-6 40.478-8.147 3.369-3.369 3.877-8.077 3.877-10.569 0-10.569 0-38.677-71.447-38.677zM132.823 584.731h104.031c132.069 0 142.338 83.839 142.338 109.547 0 13.453-3.208 39.253-26.169 62.123-20.239 17.977-51.047 27.484-89.1 27.484h-104.031c-16.753 0-31.223-11.723-34.684-28.131l-27.069-128.261c-2.216-10.455 0.416-21.347 7.153-29.631 6.739-8.308 16.847-13.131 27.531-13.131zM188.647 712.994h75.277c23.053 0 37.038-5.17 40.5-8.147 3.369-3.369 3.877-8.077 3.877-10.569 0-10.569 0-38.655-71.445-38.655h-60.323l12.116 57.37z" />
<glyph unicode="&#xe918;" glyph-name="bluetooth" d="M844.942 251.744c0.306 2.247 0.663 4.396 0.539 6.658-0.124 2.319-0.73 4.465-1.307 6.718-0.545 2.149-1.013 4.232-1.967 6.268-1.012 2.163-2.495 4.004-3.958 5.954-1.013 1.359-1.54 2.945-2.775 4.18-0.496 0.496-1.163 0.655-1.679 1.113-0.508 0.453-0.736 1.087-1.275 1.517l-205.355 163.84 205.355 163.805c0.557 0.441 0.79 1.096 1.313 1.563 0.505 0.45 1.157 0.606 1.641 1.090 1.217 1.217 1.734 2.784 2.738 4.122 1.483 1.967 2.974 3.831 3.995 6.017 0.955 2.037 1.422 4.113 1.967 6.265 0.577 2.25 1.18 4.402 1.307 6.718 0.124 2.259-0.234 4.405-0.539 6.649-0.303 2.253-0.542 4.422-1.287 6.606-0.762 2.253-2.025 4.232-3.254 6.326-0.857 1.463-1.206 3.101-2.296 4.465-0.43 0.539-1.064 0.767-1.517 1.275-0.459 0.516-0.617 1.183-1.113 1.679l-233.814 233.838c-3.265 3.265-7.183 5.85-11.515 7.647-8.665 3.588-18.427 3.588-27.092 0-8.662-3.594-15.568-10.5-19.162-19.162-1.794-4.333-2.738-8.931-2.738-13.546v-356.733l-305.514 243.749c-15.3 12.138-37.569 9.669-49.823-5.608-12.208-15.3-9.692-37.615 5.608-49.823l322.075-256.937-322.075-256.937c-15.3-12.185-17.815-34.477-5.608-49.8 7.015-8.769 17.331-13.338 27.738-13.338 7.754 0 15.554 2.538 22.084 7.754l305.514 243.703v-356.733c0-4.615 0.943-9.213 2.738-13.546 3.591-8.66 10.491-15.563 19.148-19.16 4.333-1.794 8.931-2.74 13.56-2.74s9.228 0.946 13.561 2.74c4.327 1.8 8.238 4.382 11.501 7.644l233.814 233.814c0.542 0.542 0.721 1.266 1.22 1.835 0.412 0.464 1.018 0.626 1.411 1.119 1.085 1.362 1.434 2.994 2.287 4.451 1.235 2.1 2.501 4.090 3.265 6.355 0.741 2.178 0.981 4.341 1.284 6.586zM757.32 253.489l-145.274-145.274v261.166l145.274-115.892zM612.045 526.615v261.161l145.263-145.277-145.263-115.883z" />
<glyph unicode="&#xe919;" glyph-name="bold" d="M605.546-12.766h-342.391c-16.453 1.431-49.381 7.661-74.256 37.936-23.675 28.798-24.413 60.78-23.629 73.195l-0.069 701.304c-0.785 7.615-1.546 44.604 26.375 75.41 25.244 27.806 60.48 35.444 85.494 33.413l275.934-4.592c2.284-0.046 4.546-0.3 6.761-0.785 114.822-24.414 207.031-109.377 234.86-216.446 22.798-87.547-2.215-162.611-23.906-206.247 68.764-67.841 100.7-163.996 83.902-257.635-21.46-119.945-119.207-214.415-243.259-235.091-1.938-0.323-3.877-0.462-5.815-0.462zM270.17 837.835c-5.976 0-17.699-1.154-26.098-10.384-8.884-9.83-8.307-22.36-8.122-24.783l0.138-706.519c-0.277-5.354-0.3-16.383 7.569-25.937 8.515-10.384 20.606-12.045 22.96-12.276l335.884 0.185c93.224 16.66 166.28 87.547 182.341 177.172 13.937 77.81-17.168 158.296-81.179 210.054-13.938 11.307-17.26 31.244-7.707 46.451 12.645 20.098 52.15 92.232 30.090 177.010-20.906 80.348-90.501 144.497-177.772 164.273l-274.757 4.638c-0.623 0.046-1.8 0.115-3.346 0.115zM525.452 486.076h-143.851c-19.568 0-35.444 15.876-35.444 35.444v159.658c0 5.607 1.338 11.145 3.877 16.129l4.707 9.184c6.069 11.861 18.253 19.314 31.567 19.314h136.052c1.984 0 3.992-0.162 5.953-0.508 50.373-8.584 91.355-45.158 102.016-91.009 14.676-63.342-28.336-129.314-95.878-147.059-2.931-0.762-5.953-1.154-8.999-1.154zM417.044 556.963h103.354c30.782 10.084 46.012 39.159 40.889 61.311-4.107 17.63-20.929 32.121-42.251 36.644h-101.993v-97.954zM575.456 151.53h-201.655c-19.568 0-35.444 15.876-35.444 35.444l1.731 173.664c1.685 18.229 16.983 32.167 35.282 32.167h207.931c2.584 0 5.169-0.277 7.707-0.831 53.904-11.999 94.193-57.365 97.978-110.254 4.523-63.503-43.151-120.499-108.5-129.821-1.661-0.231-3.369-0.369-5.030-0.369zM409.222 222.418h163.419c27.137 4.938 47.443 28.844 45.643 54.273-1.477 20.814-17.445 38.997-39.32 45.227h-169.834l0.092-99.5z" />
<glyph unicode="&#xe91a;" glyph-name="book" d="M892.691 80.642v692.074c0 19.568-15.876 35.444-35.444 35.444s-35.444-15.876-35.444-35.444v-694.197c0-1.754 0.138-3.507 0.369-5.215 0.092-0.6 0.785-5.815-2.861-9.876-5.215-5.861-15.784-5.307-19.337-5.123l-539.385-0.231c-7.338 0.831-32.328 5.030-46.197 23.306-17.399 22.937-9.207 55.935 8.722 74.579 18.853 19.568 47.051 21.506 54.688 21.645h417.825c12.599-1.708 40.659-2.861 66.457 16.199 35.121 25.937 34.475 64.934 34.059 70.241l-0.046 555.792c-1.431 22.521-10.845 43.705-26.49 59.696-29.121 29.652-67.288 29.698-76.056 29.144l-466.629-0.023c-9.853 0.438-44.235-0.277-70.98-27.598-26.998-27.506-25.706-60.85-24.875-66.572v-652.477c0-7.569 2.354-14.537 6.392-20.306-8.376-35.721-1.869-73.703 20.445-103.147 29.998-39.551 76.125-48.781 98.624-51.135l539.708 0.185c1.569-0.138 4.43-0.369 8.307-0.369 15.137 0 45.089 3.6 67.703 29.075 21.691 24.321 21.645 52.519 20.445 64.334zM201.747 818.314c-0.023 0.3-0.738 7.453 4.8 13.107 5.769 5.861 14.261 6.392 17.676 6.392 0.531 0 0.946-0.023 1.2-0.023l470.298 0.069c0.6 0.023 14.722 0.738 23.306-8.007 5.030-5.123 6.092-11.238 6.23-12.23l0.046-555.376c0.046-1.246-0.138-7.569-5.353-11.399-6.138-4.615-14.491-3.138-14.63-3-2.215 0.415-4.523 0.646-6.83 0.646h-421.24c-14.422-0.231-45.297-2.954-75.318-20.122l-0.185 589.943zM354.228 153.514c-19.568 0-35.444-15.876-35.444-35.444s15.876-35.444 35.444-35.444h330.784c19.568 0 35.444 15.876 35.444 35.444s-15.876 35.444-35.444 35.444h-330.784z" />
<glyph unicode="&#xe91b;" glyph-name="bookmark" d="M233.349-11.2c-4.185 0-8.394 0.736-12.441 2.254-13.775 5.197-22.882 18.351-22.882 33.069v847.754c0 19.501 15.822 35.323 35.323 35.323h557.327c19.501 0 35.323-15.822 35.323-35.323v-847.754c0-14.718-9.153-27.918-22.905-33.069-13.936-5.197-29.39-1.196-39.049 9.843l-251.332 288.242-252.804-288.288c-6.853-7.819-16.581-12.050-26.561-12.050zM268.672 836.554v-718.558l217.55 248.089c6.738 7.681 14.327 11.866 26.607 12.050 10.188 0 19.869-4.415 26.584-12.096l215.94-247.676v718.19h-486.681z" />
<glyph unicode="&#xe91c;" glyph-name="braille" d="M869.195 318.186c-57.736 0-104.693-46.957-104.693-104.693s46.957-104.693 104.693-104.693 104.693 46.957 104.693 104.693-46.957 104.693-104.693 104.693zM869.195 179.86c-18.551 0-33.633 15.082-33.633 33.633s15.082 33.633 33.633 33.633 33.633-15.082 33.633-33.633-15.082-33.633-33.633-33.633zM631.081 318.186c-57.736 0-104.693-46.957-104.693-104.693s46.957-104.693 104.693-104.693c57.736 0 104.693 46.957 104.693 104.693s-46.957 104.693-104.693 104.693zM631.081 179.86c-18.551 0-33.633 15.082-33.633 33.633s15.082 33.633 33.633 33.633c18.551 0 33.633-15.082 33.633-33.633s-15.082-33.633-33.633-33.633zM392.943 318.186c-57.736 0-104.693-46.957-104.693-104.693s46.957-104.693 104.693-104.693c57.713 0 104.67 46.957 104.67 104.693s-46.957 104.693-104.67 104.693zM392.943 179.86c-18.551 0-33.633 15.082-33.633 33.633s15.082 33.633 33.633 33.633c18.528 0 33.61-15.082 33.61-33.633s-15.082-33.633-33.61-33.633zM154.805 318.186c-57.736 0-104.693-46.957-104.693-104.693s46.957-104.693 104.693-104.693c57.713 0 104.67 46.957 104.67 104.693s-46.957 104.693-104.67 104.693zM154.805 179.86c-18.551 0-33.633 15.082-33.633 33.633s15.082 33.633 33.633 33.633c18.528 0 33.61-15.082 33.61-33.633s-15.082-33.633-33.61-33.633zM869.195 552.692c-57.736 0-104.693-46.957-104.693-104.693s46.957-104.693 104.693-104.693 104.693 46.957 104.693 104.693c0 57.736-46.957 104.693-104.693 104.693zM869.195 414.366c-18.551 0-33.633 15.082-33.633 33.633s15.082 33.633 33.633 33.633 33.633-15.082 33.633-33.633-15.082-33.633-33.633-33.633zM631.081 552.692c-57.736 0-104.693-46.957-104.693-104.693s46.957-104.693 104.693-104.693c57.736 0 104.693 46.957 104.693 104.693s-46.957 104.693-104.693 104.693zM631.081 414.366c-18.551 0-33.633 15.082-33.633 33.633s15.082 33.633 33.633 33.633c18.551 0 33.633-15.082 33.633-33.633s-15.082-33.633-33.633-33.633zM392.943 552.692c-57.736 0-104.693-46.957-104.693-104.693s46.957-104.693 104.693-104.693c57.713 0 104.67 46.957 104.67 104.693s-46.957 104.693-104.67 104.693zM392.943 414.366c-18.551 0-33.633 15.082-33.633 33.633s15.082 33.633 33.633 33.633c18.528 0 33.61-15.082 33.61-33.633s-15.082-33.633-33.61-33.633zM869.195 577.813c57.736 0 104.693 46.957 104.693 104.693 0 57.713-46.957 104.67-104.693 104.67s-104.693-46.957-104.693-104.67c0-57.736 46.957-104.693 104.693-104.693zM869.195 716.115c18.551 0 33.633-15.082 33.633-33.61 0-18.551-15.082-33.633-33.633-33.633s-33.633 15.082-33.633 33.633c0 18.528 15.082 33.61 33.633 33.61z" />
<glyph unicode="&#xe91d;" glyph-name="branding" d="M971.703 715.706c-0.341 1.619-0.147 3.242-0.73 4.841-0.187 0.508-0.603 0.834-0.811 1.328-0.953 2.306-2.431 4.242-3.848 6.303-1.23 1.784-2.258 3.669-3.761 5.17-1.458 1.464-3.291 2.448-5.014 3.652-2.098 1.458-4.081 2.961-6.436 3.934-0.494 0.205-0.82 0.627-1.328 0.811l-424.773 154.6c-3.222 1.197-6.503 1.289-9.772 1.514-1.044 0.128-2.011 0.445-3.070 0.477-1.481-0.028-2.837-0.433-4.292-0.648-2.967-0.275-5.944-0.272-8.867-1.342l-424.75-154.6c-0.497-0.181-0.814-0.595-1.3-0.794-2.3-0.95-4.231-2.425-6.289-3.836-1.798-1.239-3.703-2.266-5.219-3.787-1.441-1.434-2.405-3.247-3.594-4.942-1.492-2.137-3.025-4.156-4.016-6.561-0.195-0.475-0.603-0.788-0.781-1.278-0.572-1.564-0.378-3.152-0.719-4.736-0.541-2.462-1.117-4.83-1.117-7.387s0.577-4.923 1.117-7.386c0.341-1.584 0.147-3.172 0.719-4.738 0.205-0.562 0.611-0.975 0.842-1.523 0.558-1.319 1.334-2.445 2.044-3.689 1.438-2.52 3.039-4.814 4.984-6.855 0.964-1.017 1.928-1.938 3.020-2.841 2.586-2.142 5.403-3.836 8.466-5.167 0.678-0.294 1.138-0.866 1.842-1.123l424.75-154.598c3.995-1.478 8.081-2.148 12.123-2.148 0.3 0 0.577 0.128 0.877 0.136 0.3-0.008 0.578-0.136 0.878-0.136 4.041 0 8.128 0.694 12.123 2.148l424.773 154.598c0.719 0.264 1.186 0.844 1.877 1.147 3.044 1.328 5.844 3.013 8.422 5.147 1.083 0.897 2.044 1.813 3.002 2.822 1.969 2.064 3.594 4.388 5.045 6.939 0.684 1.208 1.441 2.295 1.981 3.572 0.239 0.566 0.658 0.989 0.872 1.572 0.583 1.6 0.389 3.222 0.73 4.841 0.525 2.428 1.097 4.762 1.097 7.283s-0.572 4.855-1.097 7.283zM512 591.239l-321.956 117.184 321.956 117.186 321.938-117.186-321.938-117.184zM971.709 194.822c-0.344 1.636-0.15 3.273-0.736 4.889-0.187 0.511-0.609 0.841-0.817 1.337-0.953 2.3-2.431 4.225-3.842 6.283-1.227 1.777-2.245 3.661-3.744 5.153-1.509 1.519-3.406 2.541-5.195 3.778-2.030 1.392-3.931 2.852-6.203 3.794-0.52 0.216-0.862 0.661-1.397 0.853l-163.12 59.392c-18.52 6.605-38.795-2.77-45.491-21.198s2.817-38.794 21.197-45.491l71.522-26.041-321.883-117.145-321.891 117.142 71.53 26.044c18.405 6.697 27.895 27.064 21.175 45.491-6.697 18.428-26.994 27.711-45.467 21.198l-163.12-59.392c-0.566-0.205-0.933-0.672-1.481-0.903-2.034-0.852-3.727-2.191-5.573-3.406-2.027-1.345-4.133-2.5-5.808-4.194-1.362-1.362-2.263-3.091-3.4-4.684-1.55-2.194-3.123-4.278-4.142-6.755-0.194-0.467-0.595-0.773-0.77-1.256-0.569-1.561-0.375-3.142-0.716-4.722-0.547-2.477-1.127-4.855-1.123-7.43 0.003-2.542 0.577-4.895 1.111-7.341 0.344-1.605 0.15-3.212 0.728-4.8 0.208-0.569 0.614-0.984 0.848-1.536 0.548-1.302 1.319-2.406 2.014-3.633 1.441-2.534 3.055-4.844 5.008-6.891 0.97-1.025 1.941-1.942 3.034-2.852 2.545-2.105 5.317-3.767 8.322-5.083 0.725-0.32 1.217-0.93 1.972-1.205l424.75-154.577c3.995-1.431 8.081-2.123 12.123-2.123 0.3 0 0.577 0.127 0.877 0.136 0.3-0.009 0.578-0.136 0.878-0.136 4.041 0 8.128 0.692 12.123 2.123l424.773 154.577c0.767 0.28 1.267 0.902 2.003 1.227 2.987 1.317 5.747 2.97 8.281 5.064 1.084 0.903 2.055 1.817 3.016 2.834 1.981 2.069 3.611 4.405 5.069 6.973 0.673 1.189 1.417 2.259 1.948 3.516 0.242 0.569 0.667 0.998 0.881 1.584 0.587 1.617 0.392 3.256 0.736 4.892 0.519 2.42 1.087 4.741 1.091 7.255-0.003 2.514-0.569 4.834-1.091 7.256zM971.703 455.277c-0.341 1.62-0.147 3.242-0.73 4.841-0.187 0.508-0.603 0.834-0.811 1.328-0.956 2.309-2.437 4.247-3.858 6.312-1.227 1.775-2.245 3.658-3.745 5.153-1.475 1.478-3.327 2.48-5.072 3.692-2.075 1.434-4.033 2.927-6.363 3.887-0.502 0.211-0.834 0.638-1.35 0.825l-163.12 59.369c-18.52 6.673-38.795-2.794-45.491-21.198s2.817-38.747 21.197-45.444l71.559-26.045-321.92-117.141-321.939 117.141 71.555 26.045c18.405 6.697 27.919 27.041 21.198 45.444-6.697 18.428-27.017 27.919-45.444 21.198l-163.12-59.369c-0.459-0.167-0.755-0.548-1.202-0.733-2.419-0.992-4.456-2.528-6.609-4.033-1.706-1.192-3.525-2.167-4.97-3.616-1.464-1.461-2.452-3.3-3.658-5.027-1.478-2.123-2.997-4.125-3.978-6.508-0.195-0.477-0.603-0.792-0.781-1.283-0.572-1.564-0.378-3.152-0.719-4.736-0.541-2.462-1.117-4.83-1.117-7.387s0.577-4.923 1.117-7.386c0.341-1.584 0.147-3.172 0.719-4.736 0.205-0.564 0.611-0.977 0.842-1.525 0.558-1.319 1.334-2.444 2.044-3.689 1.438-2.519 3.039-4.814 4.984-6.855 0.964-1.016 1.928-1.938 3.020-2.841 2.586-2.142 5.403-3.836 8.466-5.167 0.678-0.294 1.138-0.866 1.842-1.122l424.75-154.6c3.995-1.431 8.081-2.125 12.123-2.125 0.3 0 0.577 0.128 0.877 0.136 0.3-0.008 0.578-0.136 0.878-0.136 4.041 0 8.128 0.694 12.123 2.125l424.773 154.6c0.719 0.263 1.186 0.842 1.877 1.145 3.044 1.328 5.844 3.014 8.422 5.147 1.083 0.897 2.044 1.813 3.002 2.823 1.969 2.064 3.594 4.388 5.045 6.939 0.684 1.206 1.441 2.294 1.981 3.57 0.239 0.566 0.658 0.989 0.872 1.573 0.583 1.598 0.389 3.22 0.73 4.841 0.525 2.427 1.097 4.762 1.097 7.281s-0.572 4.856-1.097 7.283z" />
<glyph unicode="&#xe91e;" glyph-name="briefcase" d="M972.808 264.349c0 0.081-0.046 0.147-0.046 0.228v362.547c0 3.462-0.508 6.9-1.477 10.2-5.077 16.777-14.308 31.893-26.816 43.754-22.154 20.954-47.631 25.777-63.555 26.908h-177.603v63.324c0 4.177-0.738 8.331-2.169 12.277-6.231 16.823-17.077 31.178-31.339 41.47-24.139 17.377-49.801 17.4-62.032 16.108h-196.295c-12.3 1.315-37.985 1.223-61.963-16.085-18.208-13.108-27.139-29.885-31.408-41.654-1.431-3.877-2.146-7.985-2.146-12.116v-63.324h-187.018c-1.8 0-3.577-0.138-5.354-0.415-10.338-1.569-30.254-6.762-47.631-23.793-11.746-11.493-19.985-26.1-23.793-42.208-0.646-2.677-0.969-5.446-0.969-8.192v-499.231c-0.162-11.585 2.215-33.97 19.985-53.863 16.87-18.923 37.524-24.185 48.324-25.662 1.569-0.231 3.162-0.323 4.754-0.323h772.351c2.031 0 4.108 0.185 6.092 0.508 11.677 2.077 33.831 8.631 51.139 29.77 18.462 22.662 19.339 47.493 18.923 55.339v124.205c0 0.081 0.046 0.147 0.046 0.228zM386.853 763.327c0.992 1.454 2.331 2.954 4.131 4.246 5.285 3.854 11.7 3.254 13.454 3.046 1.638-0.231 3.3-0.346 4.939-0.346h200.519c1.662 0 3.277 0.115 4.939 0.346 1.8 0.254 8.123 0.831 13.523-3.069 1.708-1.246 3.046-2.746 4.062-4.223v-55.339h-245.565v55.339zM125.548 633.102c2.354 2.331 5.031 3.462 6.923 3.992l745.72 0.115c3.092-0.254 11.031-1.477 17.539-7.615 2.538-2.4 4.615-5.354 6.138-8.7l0.032-321.097h-79.51v18.6c0 19.57-15.877 35.447-35.447 35.447h-102.232c-19.57 0-35.447-15.877-35.447-35.447v-18.6h-274.55v18.6c0 19.57-15.877 35.447-35.447 35.447h-102.232c-19.57 0-35.447-15.877-35.447-35.447v-18.6h-79.501v328.251c0.692 1.592 1.777 3.415 3.462 5.054zM751.497 282.95v-37.201h-31.339v37.201h31.339zM303.821 282.95v-37.201h-31.339v37.201h31.339zM898.961 129.44c-1.985-2.4-4.477-3.6-6.369-4.246h-764.92c-1.015 0.323-2.469 1.015-3.6 2.262-1.938 2.169-2.008 5.123-1.985 6.185v95.263h79.501v-18.6c0-19.57 15.877-35.447 35.447-35.447h102.232c19.57 0 35.447 15.877 35.447 35.447v18.6h274.55v-18.6c0-19.57 15.877-35.447 35.447-35.447h102.232c19.57 0 35.447 15.877 35.447 35.447v18.6h79.516l0.009-90.74c0-0.231 0.185-4.846-2.954-8.723z" />
<glyph unicode="&#xe91f;" glyph-name="bug" d="M958.3 393.25h-84.472c-4.616 53.094-19.019 104.050-41.884 151.203 54.506 20.703 93.506 73.078 93.506 134.747 0 21.2-17.2 38.4-38.4 38.4s-38.4-17.2-38.4-38.4c0-34.069-25.694-61.166-58.513-65.841-12.856 17.337-26.638 34.119-42.187 49.666-0.019 0.019-0.041 0.022-0.059 0.041s-0.022 0.041-0.041 0.059c-3.281 3.284-6.847 6.162-10.241 9.291 11.203 103.278-24.131 189.641-99.209 238.109-75.8 48.875-177.4 48.975-253.075 0.15-74.947-48.372-110.209-134.822-98.906-238.366-3.262-3.009-6.687-5.784-9.847-8.937-0.156-0.15-0.369-0.194-0.522-0.347-15.631-15.631-29.328-32.419-42.084-49.688-32.85 4.631-58.616 31.756-58.616 65.863 0 21.2-17.2 38.4-38.4 38.4s-38.4-17.2-38.4-38.4c0-61.744 39.116-114.156 93.719-134.806-23.125-47.947-37.266-99.134-41.822-151.144h-84.722c-21.2 0-38.4-17.2-38.4-38.4s17.2-38.4 38.4-38.4h84.722c4.459-50.822 18.122-100.847 40.316-147.856-53.834-21.028-92.213-73.134-92.213-134.344 0-21.2 17.2-38.4 38.4-38.4s38.4 17.2 38.4 38.4c0 33.284 24.572 59.741 56.238 65.381 13.359-18.447 27.856-36.322 44.462-52.931 0.041-0.041 0.094-0.050 0.134-0.091 0.019-0.019 0.022-0.041 0.041-0.059 63-63.050 146.75-97.75 235.775-97.75 89 0 172.75 34.7 235.8 97.75 0.028 0.028 0.034 0.062 0.059 0.091 0.028 0.025 0.062 0.031 0.091 0.059 16.516 16.516 31.112 34.378 44.584 52.906 31.625-5.691 56.116-32.113 56.116-65.356 0-21.2 17.2-38.4 38.4-38.4s38.4 17.2 38.4 38.4c0 61.128-38.253 113.191-91.978 134.275 21.956 46.253 35.847 96.069 40.356 147.925h84.472c21.2 0 38.4 17.2 38.4 38.4s-17.2 38.4-38.4 38.4zM693.65 101c-0.028-0.028-0.034-0.062-0.059-0.091-0.028-0.025-0.062-0.031-0.091-0.059-39.309-39.309-89.237-63.406-143.1-71.494v650.969c53.906-8.081 103.863-32.191 143.15-71.5 0.019-0.019 0.041-0.022 0.059-0.041s0.022-0.041 0.041-0.059c67.569-67.544 104.816-157.153 105.181-252.478-0.019-0.491-0.281-0.903-0.281-1.397s0.263-0.906 0.281-1.397c-0.366-95.275-37.613-184.884-105.181-252.453zM330.391 100.941c-0.019 0.019-0.022 0.041-0.041 0.059-69.925 69.938-104.906 161.775-104.969 253.628 0 0.078 0.044 0.144 0.044 0.222 0 0.081-0.047 0.147-0.047 0.228 0.053 91.797 34.994 183.566 104.822 253.481 0.119 0.116 0.281 0.147 0.4 0.266 39.269 39.269 89.166 63.378 143 71.484v-650.953c-53.863 8.088-103.787 32.184-143.075 71.494-0.041 0.041-0.094 0.050-0.134 0.091zM426.975 846.15c49.95 32.225 119.75 32.15 169.725-0.15 39.994-25.787 62.594-67.906 66.15-121.319-46.191 23.509-97.484 36.194-150.775 36.194-53.362 0-104.722-12.716-150.962-36.284 3.478 53.609 25.987 95.834 65.862 121.559z" />
<glyph unicode="&#xe920;" glyph-name="bulb" d="M631.215 196.57c-2.368 0-4.735 0.232-7.149 0.696l-109.374 22.19c-19.289 3.946-31.754 22.748-27.831 42.060 3.9 19.312 22.655 31.661 42.036 27.854l109.374-22.19c19.266-3.946 31.754-22.748 27.854-42.060-3.435-16.898-18.291-28.55-34.91-28.55zM611.393 89.239c-2.368 0-4.735 0.232-7.149 0.696l-218.515 44.334c-19.312 3.946-31.777 22.748-27.854 42.060 3.9 19.312 22.794 31.707 42.013 27.854l218.562-44.334c19.266-3.946 31.754-22.748 27.854-42.060-3.435-16.898-18.291-28.55-34.91-28.55zM790.634 557.884c-19.684 0-35.653 15.97-35.653 35.653 0 134.071-109.095 243.166-243.189 243.166-19.684 0-35.653 15.97-35.653 35.653s15.97 35.653 35.653 35.653c173.415 0 314.496-141.081 314.496-314.473 0-19.684-15.97-35.653-35.653-35.653zM232.972 557.884c-19.684 0-35.653 15.97-35.653 35.653 0 173.392 141.081 314.473 314.473 314.473 19.707 0 35.676-15.97 35.676-35.653s-15.97-35.653-35.676-35.653c-134.071 0-243.166-109.095-243.166-243.166 0-19.684-15.97-35.653-35.653-35.653zM766.308 440.479c-4.967 0-10.027 1.068-14.809 3.25-17.919 8.194-25.811 29.34-17.594 47.259 41.828 91.547 22.098 201.060-49.116 272.552-13.881 13.95-13.881 36.512 0.093 50.416 13.973 13.927 36.535 13.834 50.416-0.093 92.104-92.429 117.591-234.090 63.414-352.54-5.989-13.091-18.894-20.844-32.404-20.844zM313.516 756.158c-9.122 0-18.244 3.482-25.208 10.445-13.927 13.927-13.927 36.489 0 50.416 122.395 122.326 321.506 122.372 443.878 0 13.927-13.927 13.927-36.489 0-50.416s-36.489-13.927-50.416 0c-94.611 94.565-248.482 94.565-343.046 0-6.964-6.964-16.086-10.445-25.208-10.445zM631.169 196.616c-0.186 0-0.325 0-0.511 0-19.684 0.279-35.421 16.48-35.143 36.164 1.114 74.695 43.174 127.618 83.841 178.823 33.378 42.013 64.9 81.682 71.074 130.682 2.46 19.544 19.962 33.495 39.831 30.918 19.544-2.46 33.379-20.287 30.918-39.831-8.635-68.8-49.72-120.515-85.976-166.103-36.303-45.681-67.639-85.141-68.382-135.51-0.279-19.498-16.202-35.143-35.653-35.143zM233.39 557.884c-19.684 0-35.653 15.97-35.653 35.653 0 173.392 141.081 314.473 314.496 314.473 19.684 0 35.653-15.97 35.653-35.653s-15.97-35.653-35.653-35.653c-134.094 0-243.189-109.095-243.189-243.166 0-19.684-15.97-35.653-35.653-35.653zM791.051 557.884c-19.684 0-35.653 15.97-35.653 35.653 0 134.071-109.095 243.166-243.166 243.166-19.684 0-35.653 15.97-35.653 35.653s15.97 35.653 35.653 35.653c173.392 0 314.473-141.081 314.473-314.473 0-19.684-15.97-35.653-35.653-35.653zM257.739 440.479c-13.532 0-26.461 7.753-32.45 20.844-54.176 118.449-28.69 260.111 63.391 352.54 13.881 13.927 36.466 14.020 50.416 0.093 13.95-13.904 13.997-36.466 0.093-50.416-71.214-71.469-90.92-181.005-49.046-272.552 8.194-17.919 0.302-39.065-17.594-47.259-4.805-2.182-9.842-3.25-14.809-3.25zM317.045 756.158c-9.122 0-18.244 3.482-25.208 10.445-13.927 13.927-13.927 36.489 0 50.416 59.167 59.167 137.994 91.756 221.927 91.756s162.761-32.589 221.904-91.756c13.927-13.927 13.927-36.489 0-50.416-13.973-13.95-36.535-13.857-50.416 0-45.681 45.704-106.588 70.865-171.488 70.865s-125.808-25.162-171.512-70.865c-6.964-6.964-16.086-10.445-25.208-10.445zM392.808 196.616c-19.475 0-35.375 15.645-35.653 35.143-0.72 50.369-32.055 89.829-68.359 135.51-36.257 45.588-77.341 97.304-85.976 166.126-2.46 19.521 11.397 37.348 30.941 39.808 19.475 2.205 37.348-11.397 39.808-30.941 6.151-48.977 37.673-88.646 71.051-130.612 40.69-51.252 82.773-104.174 83.841-178.87 0.279-19.684-15.459-35.885-35.143-36.164-0.186 0-0.348 0-0.511 0zM392.808 135.012c-19.684 0-35.653 15.97-35.653 35.653v58.586c0 19.684 15.97 35.653 35.653 35.653s35.653-15.97 35.653-35.653v-58.586c0-19.684-15.97-35.653-35.653-35.653zM585.071-12.8c-2.368 0-4.735 0.232-7.149 0.696l-165.871 33.657c-19.312 3.946-31.777 22.748-27.854 42.060 3.9 19.312 22.864 31.568 42.013 27.854l165.917-33.657c19.266-3.946 31.754-22.747 27.854-42.060-3.435-16.898-18.291-28.55-34.91-28.55z" />
<glyph unicode="&#xe921;" glyph-name="bullhorn" d="M941.272 784.744c-3.278 9.022-13.247 36.434-39.919 56.462-21.759 16.372-44.847 21.484-64.059 22.191-2.844 0.469-5.578 0.269-8.397 0.044-13.594-0.384-24.525-2.703-30.178-4.238-51.269-15.434-94.050-28.009-125.059-37.056-132.447-38.625-165.834-46.4-183.787-50.578-0.069-0.022-0.137-0.022-0.231-0.047-10.45-2.422-65.022-14.881-112.069-22.728-29.559-4.891-56.025-6.875-92.666-9.622-30.25-2.259-66.569-4.981-115.694-10.197-0.022 0-0.022 0-0.047 0-12.506-1.337-41.762-4.478-68.344-26.534-26.491-21.969-35.075-50.719-40.75-69.731-14.259-47.741-8.328-86.412-2.606-123.816 7.591-49.631 19.428-68.828 27.641-78.913 15.737-19.337 37.912-33.572 64.1-41.097 2.794-0.784 5.678-1.244 8.562-1.384 12.916-0.447 26.016-1.438 39.056-2.234 15.284-49.884 29.978-100.347 43.178-150.375 12.416-47.119 23.628-93.222 33.734-138.031 1.038-4.613 2.978-8.953 5.722-12.828 16.569-23.166 38.397-39.503 63.131-47.256 12.944-4.059 24.044-4.937 36.341-4.937 4.409 0 8.978 0.137 13.822 0.231 32.375 0.831 55.772 1.431 73.491 21.091 21.922 24.503 12.206 57.822-3.922 102.263-11.813 32.488-23.050 56.994-31.241 74.9l-2.331 5.075c-16.453 36.134-28.981 66.778-34.819 81.728-5.819 14.937-11.041 30.437-15.978 46.144 45.916-8.478 87.309-17.981 127.241-27.406 47.094-11.169 86.228-21.781 164.403-43.056 10.8-2.953 23.997-7.063 38.394-11.538 57.178-17.859 101.85-30.734 135.447-30.734 14.537 0 27.044 2.4 37.563 7.891 35.306 18.366 46.841 51.362 50.166 64.653 34.009 94.744 38.347 184.247 38.303 185.584 0.691 6.162 16.703 152.081-28.197 276.081zM140.094 474.722c-0.069 0.091-7.084 9.022-12.575 44.878-5.147 33.713-9.231 60.341 0.484 92.828 5.053 16.934 8.769 27.756 18.044 35.441 10.153 8.422 23.003 9.806 30.687 10.638 48.178 5.1 83.781 7.753 113.456 9.991 3.231 0.241 6.125 0.472 9.244 0.706-10.616-35.988-16.891-73.369-17.434-110.7-0.559-37.197 4.597-74.641 14.106-110.866-43.756 5.325-87.803 8.9-131.047 10.541-10.616 3.644-18.991 9.206-24.966 16.544zM327.894 291.375c6.069-15.597 19.15-47.625 36.363-85.375l2.378-5.212c8.122-17.722 18.25-39.781 29.050-69.547 4.522-12.459 7.406-21.459 9.253-27.872-4.522-0.187-9.553-0.325-14.375-0.416-15.575-0.462-20.722-0.372-26.766 1.475-9.784 3.047-17.328 9.553-22.659 15.737-9.828 43.194-20.675 87.497-32.603 132.812-11.041 41.85-23.603 83.906-36.116 125.825 6.141-0.684 12.287-1.112 18.419-1.869 3.556-0.441 6.616-1.006 10.103-1.463 7.787-28.875 16.481-57.234 26.953-84.097zM688.241 361.197c-79.281 21.55-118.969 32.35-166.734 43.634-45.813 10.831-93.163 21.831-147.737 31.288-14.031 38.794-21.509 80.269-20.888 121.322 0.6 40.769 9.153 81.637 24.066 119.644 4.075 0.594 8.088 1.103 12.253 1.797 49.125 8.169 105.588 21.066 116.731 23.65 18.6 4.338 53.256 12.391 187.572 51.547 20.141 5.872 45.603 13.366 74.441 21.944-24.266-61.025-38.884-125.766-42-190.869-4.778-99.206 16.053-183.275 41.85-247.956-14.578 4.238-28.403 8.513-38.712 11.725-15.275 4.753-29.35 9.137-40.841 12.275zM898.859 514.316c-0.044-0.831-4.244-84.128-35.072-169.041-0.553-1.522-1.016-3.138-1.337-4.706-0.128-0.513-2.853-11.447-11.006-17.209-29.878 60.041-59.95 148.853-54.709 258.403 3.422 71.256 22.7 141.853 54.591 206.437 2.519-1.125 5.087-1.866 7.478-3.662 8.678-6.531 13.016-16.244 15.831-23.95 39.131-108.056 24.55-242.534 24.225-246.272z" />
<glyph unicode="&#xe922;" glyph-name="bus" d="M335.716 669.885h352.546c19.569 0 35.446 15.877 35.446 35.446s-15.877 35.446-35.446 35.446h-352.546c-19.569 0-35.446-15.877-35.446-35.446s15.877-35.446 35.446-35.446zM753.155 637.208h-482.331c-19.569 0-35.446-15.877-35.446-35.446v-204.208c0-19.569 15.877-35.446 35.446-35.446h482.331c19.569 0 35.446 15.877 35.446 35.446v204.208c0 19.569-15.877 35.446-35.446 35.446zM306.27 566.315h411.439v-130.673l-101.262 75.958c-15.738 11.792-37.985 8.585-49.615-7.085-11.769-15.669-8.585-37.892 7.062-49.638l29.172-21.877h-104.553l-104.827 78.6c-15.623 11.7-37.846 8.562-49.615-7.108-11.746-15.646-8.562-37.869 7.108-49.615l29.184-21.877h-74.091v133.315zM339.501 346.554c-47.446 0-86.054-38.585-86.054-86.031s38.608-86.077 86.054-86.077 86.054 38.631 86.054 86.077-38.608 86.031-86.054 86.031zM324.339 260.523c0 8.354 6.808 15.138 15.162 15.138s15.162-6.785 15.162-15.138-6.808-15.185-15.162-15.185-15.162 6.831-15.162 15.185zM684.524 346.554c-47.446 0-86.077-38.585-86.077-86.031s38.631-86.077 86.077-86.077c47.446 0 86.031 38.631 86.031 86.077s-38.585 86.031-86.031 86.031zM669.339 260.523c0 8.354 6.831 15.138 15.185 15.138s15.138-6.785 15.138-15.138-6.785-15.185-15.138-15.185c-8.354 0-15.185 6.831-15.185 15.185zM875.405 722.863c-8.864 102.343-154.428 179.288-349.575 185.328-1.041 0.092-1.938 0.609-3.006 0.609-3.666 0-7.188-0.216-10.823-0.265-3.635 0.049-7.157 0.265-10.823 0.265-1.067 0-1.967-0.516-3.009-0.609-195.127-6.040-340.685-82.985-349.549-185.328-0.196-1.509-0.888-2.841-0.888-4.402v-552.185c0-44.706 33.398-81.381 76.477-87.384v-56.247c0-19.569 15.877-35.446 35.446-35.446h107.631c19.569 0 35.446 15.877 35.446 35.446v55.015h218.515v-55.015c0-19.569 15.877-35.446 35.446-35.446h107.631c19.569 0 35.446 15.877 35.446 35.446v56.241c43.102 5.98 76.523 42.669 76.523 87.389v552.185c0 1.561-0.692 2.893-0.888 4.402zM331.839 58.092h-36.738v19.569h36.738v-19.569zM692.139 58.092v19.569h36.738v-19.569h-36.738zM805.401 166.277c0-9.785-7.985-17.723-17.769-17.723h-551.238c-9.808 0-17.769 7.938-17.769 17.723v546.762c0 57.698 124.786 121.927 293.377 124.615 168.591-2.688 293.4-66.917 293.4-124.615v-546.762z" />
<glyph unicode="&#xe923;" glyph-name="calendar" d="M939.323 799.628h-148.006v43.052c0 19.661-15.95 35.611-35.609 35.611s-35.611-15.95-35.611-35.611v-43.052h-416.194v43.052c0 19.661-15.952 35.611-35.611 35.611s-35.609-15.95-35.609-35.611v-43.052h-148.006c-19.659 0-35.609-15.95-35.609-35.611v-710.697c0-19.661 15.95-35.611 35.609-35.611h854.647c19.659 0 35.609 15.95 35.609 35.611v710.697c0 19.661-15.95 35.611-35.609 35.611zM232.683 728.408v-43.030c0-19.659 15.95-35.609 35.609-35.609s35.611 15.95 35.611 35.609v43.030h416.194v-43.030c0-19.659 15.952-35.609 35.611-35.609s35.609 15.95 35.609 35.609v43.030h112.395v-109.127h-783.425v109.127h112.395zM120.287 88.93v459.131h783.425v-459.131h-783.425zM548.352 218.017h-72.703c-19.661 0-35.611-15.95-35.611-35.611 0-19.659 15.95-35.609 35.611-35.609h72.703c19.661 0 35.611 15.95 35.611 35.609 0 19.661-15.95 35.611-35.611 35.611zM548.352 342.7h-72.703c-19.661 0-35.611-15.952-35.611-35.611s15.95-35.611 35.611-35.611h72.703c19.661 0 35.611 15.952 35.611 35.611s-15.95 35.611-35.611 35.611zM800.823 470.256h-72.705c-19.659 0-35.609-15.95-35.609-35.609 0-19.661 15.95-35.611 35.609-35.611h72.705c19.659 0 35.609 15.95 35.609 35.611 0 19.659-15.95 35.609-35.609 35.609zM800.823 218.017h-72.705c-19.659 0-35.609-15.95-35.609-35.611 0-19.659 15.95-35.609 35.609-35.609h72.705c19.659 0 35.609 15.95 35.609 35.609 0 19.661-15.95 35.611-35.609 35.611zM800.823 342.7h-72.705c-19.659 0-35.609-15.952-35.609-35.611s15.95-35.611 35.609-35.611h72.705c19.659 0 35.609 15.952 35.609 35.611s-15.95 35.611-35.609 35.611zM295.858 218.017h-72.705c-19.659 0-35.609-15.95-35.609-35.611 0-19.659 15.95-35.609 35.609-35.609h72.705c19.659 0 35.611 15.95 35.611 35.609 0 19.661-15.952 35.611-35.611 35.611zM295.858 342.7h-72.705c-19.659 0-35.609-15.952-35.609-35.611s15.95-35.611 35.609-35.611h72.705c19.659 0 35.611 15.952 35.611 35.611s-15.952 35.611-35.611 35.611z" />
<glyph unicode="&#xe924;" glyph-name="calendar-alt" d="M937.354 798.008h-147.323v42.854c0 19.569-15.877 35.446-35.446 35.446s-35.446-15.877-35.446-35.446v-42.854h-414.277v42.854c0 19.569-15.877 35.446-35.446 35.446s-35.446-15.877-35.446-35.446v-42.854h-147.323c-19.569 0-35.446-15.877-35.446-35.446v-707.423c0-19.569 15.877-35.446 35.446-35.446h850.708c19.569 0 35.446 15.877 35.446 35.446v707.423c0 19.569-15.877 35.446-35.446 35.446zM476.554 547.6v-105.092h-141.785v105.092h141.785zM689.231 547.6v-105.092h-141.785v105.092h141.785zM901.908 547.6v-105.092h-141.785v105.092h141.785zM334.769 371.615h141.785v-105.046h-141.785v105.046zM263.877 266.569h-141.785v105.046h141.785v-105.046zM547.446 371.615h141.785v-105.046h-141.785v105.046zM760.123 371.615h141.785v-105.046h-141.785v105.046zM263.877 442.508h-141.785v105.092h141.785v-105.092zM122.092 195.677h141.785v-105.092h-141.785v105.092zM334.769 195.677h141.785v-105.092h-141.785v105.092zM547.446 195.677h141.785v-105.092h-141.785v105.092zM760.123 195.677h141.785v-105.092h-141.785v105.092zM269.415 668.062c19.569 0 35.446 15.877 35.446 35.446v23.608h414.277v-23.608c0-19.569 15.877-35.446 35.446-35.446s35.446 15.877 35.446 35.446v23.608h111.877v-108.623h-779.815v108.623h111.877v-23.608c0-19.569 15.877-35.446 35.446-35.446z" />
<glyph unicode="&#xe925;" glyph-name="camera" d="M512 596.462c-99.275 0-180.055-80.78-180.055-180.055 0-99.298 80.78-180.055 180.055-180.055 99.298 0 180.055 80.757 180.055 180.055 0 99.275-80.757 180.055-180.055 180.055zM512 307.194c-60.211 0-109.214 48.98-109.214 109.214 0 60.211 49.003 109.214 109.214 109.214 60.234 0 109.214-49.003 109.214-109.214 0-60.234-48.98-109.214-109.214-109.214zM908.315 648.487h-95.608c-0.058 0-0.104-0.032-0.161-0.032s-0.104 0.032-0.161 0.032h-10.931c-21.077 0-38.188 17.134-38.188 38.188 0 57.19-46.536 103.725-103.725 103.725h-295.080c-57.19 0-103.725-46.536-103.725-103.725 0-21.054-17.134-38.188-38.188-38.188h-10.93c-0.061 0-0.113-0.035-0.173-0.035s-0.112 0.035-0.173 0.035h-95.585c-35.651 0-64.661-29.010-64.661-64.661v-413.564c0-35.651 29.010-64.661 64.661-64.661h792.63c35.651 0 64.661 29.010 64.661 64.661v413.564c0 35.651-29.010 64.661-64.661 64.661zM902.135 176.441h-780.27v401.204h89.405c0.061 0 0.112 0.035 0.173 0.035s0.113-0.035 0.173-0.035h10.93c60.118 0 109.029 48.911 109.029 109.029 0 18.125 14.759 32.884 32.884 32.884h295.080c18.125 0 32.884-14.759 32.884-32.884 0-60.118 48.888-109.029 109.029-109.029h10.931c0.058 0 0.104 0.032 0.161 0.032s0.104-0.032 0.161-0.032h89.428v-401.204z" />
<glyph unicode="&#xe926;" glyph-name="camera-video" d="M612.193 744.1h-525.91c-19.586 0-35.476-15.89-35.476-35.476v-521.244c0-19.586 15.89-35.476 35.476-35.476h525.91c19.586 0 35.476 15.89 35.476 35.476v521.244c0 19.586-15.89 35.476-35.476 35.476zM576.717 222.856h-454.957v450.291h454.957v-450.291zM953.422 753.154c-12.149 6.005-26.654 4.596-37.278-3.649l-220.064-168.767c-8.777-6.721-13.904-17.114-13.904-28.155v-209.163c0-11.040 5.127-21.434 13.904-28.132l220.064-168.744c6.282-4.85 13.904-7.345 21.572-7.345 5.358 0 10.717 1.201 15.706 3.649 12.103 6.005 19.771 18.339 19.771 31.827v546.673c0 13.512-7.668 25.845-19.771 31.804zM902.24 246.599l-149.112 114.328v174.148l149.112 114.351v-402.828z" />
<glyph unicode="&#xe927;" glyph-name="car" d="M227.907 250.909c44.878 0 81.404 36.504 81.404 81.381s-36.527 81.427-81.404 81.427-81.404-36.55-81.404-81.427 36.527-81.381 81.404-81.381zM238.247 332.29c0-5.691-4.65-10.317-10.34-10.317s-10.34 4.627-10.34 10.317c0 5.737 4.65 10.363 10.34 10.363s10.34-4.627 10.34-10.363zM796.117 250.909c44.878 0 81.381 36.504 81.381 81.381s-36.504 81.427-81.381 81.427-81.427-36.55-81.427-81.427 36.55-81.381 81.427-81.381zM806.434 332.29c0-5.691-4.627-10.317-10.317-10.317-5.829 0-10.363 4.534-10.363 10.317 0 5.829 4.534 10.363 10.363 10.363 5.783 0 10.317-4.534 10.317-10.363zM973.915 432.339c0 36.561-30.79 63.442-76.208 83.527l-21.091 184.51c0.006 0.246 0.142 0.448 0.142 0.697 0 93.433-178.238 138.077-352.121 141.766-0.625 0.032-1.154 0.362-1.787 0.362-3.606 0-7.235-0.133-10.849-0.168-3.614 0.035-7.243 0.168-10.849 0.168-0.633 0-1.16-0.33-1.787-0.362-173.857-3.687-352.098-48.336-352.098-141.766 0-0.246 0.133-0.448 0.139-0.691l-21.135-184.527c-45.404-20.085-76.185-46.959-76.185-83.515 0-2.336 0.888-4.456 1.31-6.705-0.416-2.178-1.31-4.181-1.31-6.48v-226.955c0-28.994 25.75-48.333 69.93-54.822v-49.044c0-19.616 15.915-35.532 35.532-35.532h97.551c19.617 0 35.532 15.915 35.532 35.532v46.451h446.74v-46.451c0-19.616 15.915-35.532 35.532-35.532h97.574c19.617 0 35.532 15.915 35.532 35.532v49.044c44.172 6.489 69.907 25.828 69.907 54.822v226.955c0 2.339-0.902 4.381-1.333 6.593 0.431 2.212 1.333 4.254 1.333 6.593zM218.098 693.092c0.191 1.651-0.367 3.146-0.405 4.762 0.093 1.053 0.613 1.958 0.613 3.033 4.037 20.88 108.947 68.979 293.702 70.899 184.565-1.917 289.423-49.906 293.685-70.83 0.003-1.104 0.535-2.036 0.636-3.114-0.035-1.605-0.593-3.091-0.405-4.728l17.465-152.798c-25.235 6.211-51.765 11.329-78.729 15.427-2.351 4.239-5.488 8.108-9.615 11.205l-126.999 95.261c-15.776 11.821-38.076 8.582-49.758-7.102-11.775-15.707-8.582-37.984 7.102-49.759l47.833-35.879c-34.378 2.198-64.13 3.259-85.406 3.69-0.622 0.032-1.145 0.359-1.775 0.359-3.14 0-7.969-0.023-14.042-0.090-6.072 0.066-10.901 0.090-14.042 0.090-0.63 0-1.154-0.327-1.775-0.359-12.11-0.243-26.97-0.717-43.906-1.443l-120.643 90.493c-15.684 11.705-37.961 8.559-49.759-7.102-11.775-15.707-8.582-37.984 7.102-49.759l55.201-41.405c-47.677-4.896-97.967-12.399-143.576-23.627l17.497 152.775zM512.113 502.287c233.219-1.775 374.6-46.257 390.831-72.191 0.101-1.637 0.873-3.028 1.188-4.598-0.399-2.134-1.281-4.095-1.281-6.344v-209.837c-7.449-1.804-18.83-3.47-33.45-3.47h-714.779c-14.643 0-26.024 1.666-33.473 3.47v209.837c0 2.307-0.894 4.32-1.316 6.506 0.127 1.229 0.714 2.258 0.714 3.534 13.405 25.767 155.432 71.324 391.565 73.094zM217.566 123.864h-26.487v10.919h26.487v-10.919zM806.434 123.864v10.919h26.51v-10.919h-26.51z" />
<glyph unicode="&#xe928;" glyph-name="cart" d="M938.294 908.825h-78.080c-37.745 0-70.309-25.626-79.19-62.33l-6.49-26.805h-642.826c-23.984 0-46.626-10.477-62.145-28.748-15.496-18.271-22.18-42.324-18.294-65.984l32.194-195.524c5.898-35.756 33.998-62.908 69.916-67.58l518.222-67.227-18.103-74.755c-1.156-4.718-5.319-8.002-10.176-8.002h-535.874c-19.612 0-35.524-15.912-35.524-35.524s15.912-35.525 35.524-35.525h535.874c37.745 0 70.309 25.626 79.19 62.307l127.527 526.669c1.156 4.695 5.319 7.979 10.176 7.979h78.080c19.612 0 35.525 15.912 35.525 35.525s-15.912 35.524-35.525 35.524zM162.537 532.302c-4.626 0.601-8.234 4.094-8.974 8.673l-32.171 195.5c-0.694 4.163 1.179 7.1 2.336 8.488 1.179 1.364 3.77 3.677 7.979 3.677h625.619l-68.904-284.54-525.886 68.202zM564.824 199.098c-58.421 0-105.949-47.551-105.949-105.972s47.528-105.926 105.949-105.926c58.421 0 105.926 47.505 105.926 105.926s-47.505 105.972-105.926 105.972zM564.824 58.249c-19.242 0-34.9 15.634-34.9 34.877s15.658 34.923 34.9 34.923c19.242 0 34.877-15.681 34.877-34.923s-15.634-34.877-34.877-34.877zM201.23 199.098c-58.421 0-105.949-47.551-105.949-105.972s47.528-105.926 105.949-105.926c58.398 0 105.926 47.505 105.926 105.926s-47.528 105.972-105.926 105.972zM201.23 58.249c-19.242 0-34.9 15.634-34.9 34.877s15.658 34.923 34.9 34.923c19.243 0 34.877-15.681 34.877-34.923s-15.634-34.877-34.877-34.877z" />
<glyph unicode="&#xe929;" glyph-name="cart-download" d="M937.354 907.808h-77.908c-37.662 0-70.154-25.569-79.015-62.192l-6.476-26.746h-641.408c-23.931 0-46.523-10.454-62.008-28.685-15.462-18.231-22.131-42.231-18.254-65.838l32.123-195.092c5.885-35.677 33.923-62.769 69.762-67.431l517.079-67.079-18.063-74.59c-1.154-4.708-5.308-7.985-10.154-7.985h-534.692c-19.569 0-35.446-15.877-35.446-35.446s15.877-35.446 35.446-35.446h534.692c37.662 0 70.154 25.569 79.015 62.169l127.246 525.507c1.154 4.685 5.308 7.962 10.154 7.962h77.908c19.569 0 35.446 15.877 35.446 35.446s-15.877 35.446-35.446 35.446zM163.308 532.116c-4.615 0.6-8.215 4.085-8.954 8.654l-32.1 195.069c-0.692 4.154 1.177 7.085 2.331 8.469 1.177 1.362 3.762 3.669 7.962 3.669h624.239l-68.752-283.912-524.726 68.051zM564.708 199.647c-58.292 0-105.715-47.446-105.715-105.738s47.423-105.692 105.715-105.692 105.692 47.4 105.692 105.692-47.4 105.738-105.692 105.738zM564.708 59.109c-19.2 0-34.8 15.6-34.8 34.8s15.6 34.846 34.8 34.846 34.8-15.646 34.8-34.846-15.6-34.8-34.8-34.8zM201.916 199.647c-58.292 0-105.715-47.446-105.715-105.738s47.423-105.692 105.715-105.692c58.269 0 105.692 47.4 105.692 105.692s-47.423 105.738-105.692 105.738zM201.916 59.109c-19.2 0-34.823 15.6-34.823 34.8s15.623 34.846 34.823 34.846 34.8-15.646 34.8-34.846-15.6-34.8-34.8-34.8zM671.462 641.432c-13.846 13.846-36.277 13.846-50.123 0l-16.754-16.76v64.529c0 19.569-15.877 35.446-35.446 35.446s-35.446-15.877-35.446-35.446v-64.529l-16.754 16.76c-13.892 13.846-36.3 13.846-50.146 0s-13.846-36.277 0-50.123l77.285-77.285c3.262-3.262 7.174-5.844 11.501-7.644 4.333-1.794 8.931-2.74 13.561-2.74s9.228 0.946 13.561 2.74c4.327 1.8 8.238 4.382 11.501 7.644l77.262 77.285c13.846 13.846 13.846 36.3 0 50.123z" />
<glyph unicode="&#xe92a;" glyph-name="cart-plus" d="M937.354 907.808h-77.908c-37.662 0-70.154-25.569-79.015-62.192l-6.476-26.746h-641.408c-23.931 0-46.523-10.454-62.008-28.685-15.462-18.231-22.131-42.231-18.254-65.838l32.123-195.092c5.885-35.677 33.923-62.769 69.762-67.431l517.079-67.079-18.063-74.59c-1.154-4.708-5.308-7.985-10.154-7.985h-534.692c-19.569 0-35.446-15.877-35.446-35.446s15.877-35.446 35.446-35.446h534.692c37.662 0 70.154 25.569 79.015 62.169l127.246 525.507c1.154 4.685 5.308 7.962 10.154 7.962h77.908c19.569 0 35.446 15.877 35.446 35.446s-15.877 35.446-35.446 35.446zM163.308 532.116c-4.615 0.6-8.215 4.085-8.954 8.654l-32.1 195.069c-0.692 4.154 1.177 7.085 2.331 8.469 1.177 1.362 3.762 3.669 7.962 3.669h624.239l-68.752-283.912-524.726 68.051zM564.708 199.647c-58.292 0-105.715-47.446-105.715-105.738s47.423-105.692 105.715-105.692 105.692 47.4 105.692 105.692-47.4 105.738-105.692 105.738zM564.708 59.109c-19.2 0-34.8 15.6-34.8 34.8s15.6 34.846 34.8 34.846 34.8-15.646 34.8-34.846-15.6-34.8-34.8-34.8zM201.916 199.647c-58.292 0-105.715-47.446-105.715-105.738s47.423-105.692 105.715-105.692c58.269 0 105.692 47.4 105.692 105.692s-47.423 105.738-105.692 105.738zM201.916 59.109c-19.2 0-34.823 15.6-34.823 34.8s15.623 34.846 34.823 34.846 34.8-15.646 34.8-34.846-15.6-34.8-34.8-34.8zM641.969 649.601h-39.6v39.6c0 19.569-15.877 35.446-35.446 35.446s-35.446-15.877-35.446-35.446v-39.6h-39.623c-19.569 0-35.446-15.877-35.446-35.446s15.877-35.446 35.446-35.446h39.623v-39.623c0-19.569 15.877-35.446 35.446-35.446s35.446 15.877 35.446 35.446v39.623h39.6c19.569 0 35.446 15.877 35.446 35.446s-15.877 35.446-35.446 35.446z" />
<glyph unicode="&#xe92b;" glyph-name="cart-upload" d="M937.354 907.808h-77.908c-37.662 0-70.154-25.569-79.015-62.192l-6.476-26.746h-641.408c-23.931 0-46.523-10.454-62.008-28.685-15.462-18.231-22.131-42.231-18.254-65.838l32.123-195.092c5.885-35.677 33.923-62.769 69.762-67.431l517.079-67.079-18.063-74.59c-1.154-4.708-5.308-7.985-10.154-7.985h-534.692c-19.569 0-35.446-15.877-35.446-35.446s15.877-35.446 35.446-35.446h534.692c37.662 0 70.154 25.569 79.015 62.169l127.246 525.507c1.154 4.685 5.308 7.962 10.154 7.962h77.908c19.569 0 35.446 15.877 35.446 35.446s-15.877 35.446-35.446 35.446zM163.308 532.116c-4.615 0.6-8.215 4.085-8.954 8.654l-32.1 195.069c-0.692 4.154 1.177 7.085 2.331 8.469 1.177 1.362 3.762 3.669 7.962 3.669h624.239l-68.752-283.912-524.726 68.051zM564.708 199.647c-58.292 0-105.715-47.446-105.715-105.738s47.423-105.692 105.715-105.692 105.692 47.4 105.692 105.692-47.4 105.738-105.692 105.738zM564.708 59.109c-19.2 0-34.8 15.6-34.8 34.8s15.6 34.846 34.8 34.846 34.8-15.646 34.8-34.846-15.6-34.8-34.8-34.8zM201.916 199.647c-58.292 0-105.715-47.446-105.715-105.738s47.423-105.692 105.715-105.692c58.269 0 105.692 47.4 105.692 105.692s-47.423 105.738-105.692 105.738zM201.916 59.109c-19.2 0-34.823 15.6-34.823 34.8s15.623 34.846 34.823 34.846 34.8-15.646 34.8-34.846-15.6-34.8-34.8-34.8zM671.462 636.978l-77.262 77.285c-3.265 3.265-7.183 5.85-11.515 7.647-8.665 3.588-18.427 3.588-27.092 0-4.33-1.797-8.25-4.382-11.515-7.647l-77.285-77.285c-13.846-13.846-13.846-36.277 0-50.123 6.923-6.923 15.992-10.385 25.062-10.385s18.138 3.462 25.085 10.385l16.754 16.76v-64.529c0-19.569 15.877-35.446 35.446-35.446s35.446 15.877 35.446 35.446v64.529l16.754-16.76c6.923-6.923 15.969-10.385 25.062-10.385s18.138 3.462 25.062 10.385c13.846 13.823 13.846 36.277 0 50.123z" />
<glyph unicode="&#xe92c;" glyph-name="chart-bars" d="M935.884 29.867h-847.769c-19.502 0-35.323 15.822-35.323 35.323v765.644c0 19.502 15.822 35.323 35.323 35.323s35.325-15.822 35.325-35.323v-730.32h812.444c19.502 0 35.323-15.822 35.323-35.323s-15.822-35.323-35.323-35.323zM352.883 172.633h-106.431c-19.502 0-35.323 15.822-35.323 35.323v475.927c0 19.502 15.822 35.323 35.323 35.323h106.431c19.502 0 35.323-15.822 35.323-35.323v-475.927c0-19.502-15.822-35.323-35.323-35.323zM281.775 243.28h35.784v405.28h-35.784v-405.28zM595.847 172.633h-106.43c-19.502 0-35.323 15.822-35.323 35.323v622.878c0 19.502 15.822 35.323 35.323 35.323h106.43c19.503 0 35.325-15.822 35.325-35.323v-622.878c0-19.502-15.822-35.323-35.325-35.323zM524.741 243.28h35.783v552.231h-35.783v-552.231zM838.836 172.633h-106.431c-19.502 0-35.323 15.822-35.323 35.323v311.428c0 19.502 15.822 35.323 35.323 35.323h106.431c19.502 0 35.323-15.822 35.323-35.323v-311.428c0-19.502-15.822-35.323-35.323-35.323zM767.728 243.28h35.784v240.781h-35.784v-240.781z" />
<glyph unicode="&#xe92d;" glyph-name="check" d="M335.462 111.632c-9.069 0-18.138 3.462-25.062 10.385l-248.815 248.815c-13.846 13.846-13.846 36.277 0 50.123s36.277 13.846 50.123 0l223.754-223.754 576.831 576.808c13.846 13.846 36.277 13.846 50.123 0s13.846-36.277 0-50.123l-601.892-601.869c-6.923-6.923-15.992-10.385-25.062-10.385z" />
<glyph unicode="&#xe92e;" glyph-name="check-alt" d="M962.411 708.252l-92.852 92.898c-3.458 3.463-7.458 6.059-11.728 7.792-0.402 0.161-0.852 0.095-1.256 0.245-3.902 1.416-7.964 2.348-12.070 2.348-4.098 0.003-8.153-0.93-12.052-2.341-0.412-0.15-0.873-0.081-1.284-0.248-4.277-1.731-8.284-4.328-11.753-7.797l-445.309-445.309-169.498 169.498c-13.852 13.852-36.292 13.852-50.144 0l-92.875-92.898c-13.852-13.852-13.852-36.291 0-50.144l287.445-287.422c6.927-6.927 15.998-10.389 25.072-10.389s18.145 3.463 25.072 10.389l563.233 563.233c6.927 6.914 10.389 15.991 10.389 25.069s-3.463 18.148-10.389 25.075zM374.106 170.089l-237.306 237.283 42.739 42.75 169.495-169.495c6.927-6.927 15.998-10.389 25.072-10.389s18.145 3.463 25.072 10.389l445.303 445.303 42.72-42.744-513.095-513.097z" />
<glyph unicode="&#xe92f;" glyph-name="check-circle" d="M512 908.8c-254.078 0-460.8-206.722-460.8-460.8s206.722-460.8 460.8-460.8 460.8 206.722 460.8 460.8-206.722 460.8-460.8 460.8zM512 58.094c-214.984 0-389.906 174.922-389.906 389.906s174.922 389.906 389.906 389.906 389.906-174.922 389.906-389.906-174.922-389.906-389.906-389.906zM699.616 591.078l-290.447-290.447-105.391 105.369c-13.847 13.847-36.278 13.847-50.125 0s-13.847-36.278 0-50.122l130.453-130.431c6.925-6.925 15.994-10.384 25.063-10.384s18.137 3.459 25.063 10.384l315.506 315.506c13.847 13.847 13.847 36.278 0 50.125-13.844 13.844-36.275 13.844-50.122 0z" />
<glyph unicode="&#xe930;" glyph-name="chevron-down" d="M532.726 208.744l428.499 428.522c13.809 13.809 13.809 36.18 0 49.989s-36.18 13.809-49.989 0l-403.504-403.527-394.943 394.966c-13.809 13.809-36.18 13.809-49.989 0-6.905-6.905-10.357-15.95-10.357-24.995s3.452-18.090 10.357-24.995l419.937-419.96c6.628-6.628 15.627-10.357 24.995-10.357s18.366 3.729 24.995 10.357z" />
<glyph unicode="&#xe931;" glyph-name="chevron-down-circle" d="M512 906.666c-252.9 0-458.666-205.766-458.666-458.666s205.766-458.666 458.666-458.666 458.666 205.766 458.666 458.666-205.766 458.666-458.666 458.666zM512 59.897c-213.991 0-388.103 174.113-388.103 388.103s174.113 388.103 388.103 388.103 388.103-174.113 388.103-388.103-174.113-388.103-388.103-388.103zM684.137 525.431l-174.134-174.091-170.119 170.119c-13.781 13.781-36.109 13.781-49.891 0-13.781-13.784-13.781-36.109 0-49.891l195.063-195.063c6.891-6.891 15.919-10.338 24.947-10.338 9.025 0 18.075 3.447 24.922 10.338l199.103 199.034c13.781 13.781 13.781 36.109 0 49.891-13.781 13.784-36.109 13.784-49.891 0z" />
<glyph unicode="&#xe932;" glyph-name="chevron-left" d="M272.757 427.286l428.522-428.499c13.809-13.809 36.18-13.809 49.989 0s13.809 36.18 0 49.989l-403.527 403.504 394.966 394.943c13.809 13.809 13.809 36.18 0 49.989-6.905 6.905-15.95 10.357-24.995 10.357s-18.090-3.452-24.995-10.357l-419.96-419.937c-6.628-6.628-10.357-15.627-10.357-24.995s3.729-18.366 10.357-24.995z" />
<glyph unicode="&#xe933;" glyph-name="chevron-left-circle" d="M970.666 448c0 252.9-205.766 458.666-458.666 458.666s-458.666-205.766-458.666-458.666 205.766-458.666 458.666-458.666 458.666 205.766 458.666 458.666zM123.897 448c0 213.991 174.113 388.103 388.103 388.103s388.103-174.113 388.103-388.103-174.113-388.103-388.103-388.103-388.103 174.113-388.103 388.103zM589.431 275.863l-174.091 174.134 170.119 170.119c13.781 13.781 13.781 36.109 0 49.891-13.784 13.781-36.109 13.781-49.891 0l-195.062-195.063c-6.891-6.891-10.338-15.919-10.338-24.947 0-9.025 3.447-18.075 10.338-24.922l199.034-199.103c13.781-13.781 36.109-13.781 49.891 0 13.784 13.781 13.784 36.109 0 49.891z" />
<glyph unicode="&#xe934;" glyph-name="chevron-right" d="M751.268 468.714l-428.522 428.499c-13.809 13.809-36.18 13.809-49.989 0s-13.809-36.18 0-49.989l403.527-403.504-394.966-394.943c-13.809-13.809-13.809-36.18 0-49.989 6.905-6.905 15.95-10.357 24.995-10.357s18.090 3.452 24.995 10.357l419.96 419.937c6.628 6.628 10.357 15.627 10.357 24.995s-3.729 18.366-10.357 24.995z" />
<glyph unicode="&#xe935;" glyph-name="chevron-right-circle" d="M53.334 448c0-252.9 205.766-458.666 458.666-458.666s458.666 205.766 458.666 458.666-205.766 458.666-458.666 458.666-458.666-205.766-458.666-458.666zM900.103 448c0-213.991-174.113-388.103-388.103-388.103s-388.103 174.113-388.103 388.103 174.113 388.103 388.103 388.103 388.103-174.113 388.103-388.103zM434.569 620.137l174.091-174.134-170.119-170.119c-13.781-13.781-13.781-36.109 0-49.891 13.784-13.781 36.109-13.781 49.891 0l195.063 195.063c6.891 6.891 10.338 15.919 10.338 24.947 0 9.025-3.447 18.075-10.338 24.922l-199.034 199.103c-13.781 13.781-36.109 13.781-49.891 0-13.784-13.781-13.784-36.109 0-49.891z" />
<glyph unicode="&#xe936;" glyph-name="chevron-up" d="M491.299 687.255l-428.499-428.522c-13.809-13.809-13.809-36.18 0-49.989s36.18-13.809 49.989 0l403.504 403.527 394.943-394.966c13.809-13.809 36.18-13.809 49.989 0 6.905 6.904 10.357 15.95 10.357 24.995s-3.452 18.090-10.357 24.995l-419.937 419.96c-6.628 6.629-15.627 10.357-24.995 10.357s-18.366-3.729-24.995-10.357z" />
<glyph unicode="&#xe937;" glyph-name="chevron-up-circle" d="M512-10.666c252.9 0 458.666 205.766 458.666 458.666s-205.766 458.666-458.666 458.666-458.666-205.766-458.666-458.666 205.766-458.666 458.666-458.666zM512 836.103c213.991 0 388.103-174.113 388.103-388.103s-174.113-388.103-388.103-388.103-388.103 174.113-388.103 388.103 174.113 388.103 388.103 388.103zM339.863 370.569l174.134 174.091 170.119-170.119c13.781-13.781 36.109-13.781 49.891 0 13.781 13.784 13.781 36.109 0 49.891l-195.063 195.063c-6.891 6.891-15.919 10.338-24.947 10.338-9.025 0-18.075-3.447-24.922-10.338l-199.103-199.034c-13.781-13.781-13.781-36.109 0-49.891 13.781-13.784 36.109-13.784 49.891 0z" />
<glyph unicode="&#xe938;" glyph-name="circle" d="M512 908.8c-254.077 0-460.8-206.723-460.8-460.8s206.723-460.8 460.8-460.8 460.8 206.723 460.8 460.8-206.723 460.8-460.8 460.8zM512 58.092c-214.985 0-389.908 174.923-389.908 389.908s174.923 389.908 389.908 389.908 389.908-174.923 389.908-389.908-174.923-389.908-389.908-389.908z" />
<glyph unicode="&#xe939;" glyph-name="clock" d="M512 908.8c-254.077 0-460.8-206.723-460.8-460.8s206.723-460.8 460.8-460.8 460.8 206.723 460.8 460.8-206.723 460.8-460.8 460.8zM512 58.092c-214.985 0-389.908 174.923-389.908 389.908s174.923 389.908 389.908 389.908 389.908-174.923 389.908-389.908-174.923-389.908-389.908-389.908zM676.4 673.208c-17.077 9.554-38.677 3.346-48.231-13.708l-123.646-221.838h-199.592c-19.569 0-35.446-15.877-35.446-35.446s15.877-35.446 35.446-35.446h220.408c12.877 0 24.692 6.969 30.969 18.185l133.8 240.023c9.508 17.1 3.369 38.7-13.708 48.231z" />
<glyph unicode="&#xe93a;" glyph-name="cloud" d="M972.704 347.036c0 53.784-21.693 102.492-56.593 138.237-0.568 0.649-0.787 1.474-1.41 2.088-8.248 8.107-17.226 15.132-26.539 21.572-3.337 2.353-6.887 4.314-10.371 6.46-5.768 3.487-11.608 6.726-17.656 9.595-5.139 2.486-10.287 4.819-15.66 6.861-4.695 1.756-9.506 3.054-14.313 4.453-10.472 3.092-21.206 5.252-32.315 6.581-1.673 0.202-3.328 0.493-5.007 0.652 18.426 53.798 6.786 115.704-36.044 158.534-29.44 29.44-67.985 44.229-106.674 44.731-0.649 0.035-1.2 0.375-1.857 0.375-17.31 0-33.679-3.516-49.221-8.819-3.129-1.050-6.348-1.673-9.416-2.93-5.001-2.074-9.537-4.914-14.258-7.487-4.222-2.278-8.586-4.159-12.621-6.858-3.781-2.544-7.017-5.751-10.553-8.612-4.268-3.438-8.776-6.437-12.739-10.4-0.291-0.288-0.375-0.683-0.652-0.98-9.212-9.373-16.753-20.194-23.34-31.664-113.561 85.514-275.55 77.739-378.985-25.59-55.604-55.615-83.541-128.385-84.481-201.416-0.121-1.197-0.701-2.235-0.701-3.464 0-38.366 7.657-74.935 21.246-108.488 0.199-0.493 0.346-1.001 0.548-1.494 6.766-16.45 15.075-32.073 24.618-46.851 0.932-1.454 1.713-2.953 2.674-4.392 10.036-14.959 21.48-28.881 34.049-41.7 0.77-0.787 1.266-1.73 2.048-2.509 0.332-0.332 0.779-0.43 1.119-0.744 52.446-51.857 124.454-83.977 203.854-83.977h440.17c2.541 0 4.776 0.937 7.167 1.448 102.532 7.487 183.916 92.375 183.916 196.788zM774.468 219.678h-433.017c-68.533 0-129.057 32.249-169.294 81.641-4.237 5.229-9.079 10.126-12.762 15.634-3.544 5.272-6.042 11.216-9.128 16.796-3.92 7.167-8.3 14.155-11.36 21.63-1.505 3.634-2.221 7.625-3.533 11.354-26.666 76.925-10.108 165.649 51.217 226.989 84.926 84.833 222.542 85.22 308.171 1.583-0.006-0.612-0.182-1.177-0.182-1.791 0-19.565 15.874-35.439 35.439-35.439s35.462 15.874 35.462 35.439c0 27.072 13.258 50.935 33.42 66.050 1.11 0.825 2.091 1.875 3.23 2.636 2.030 1.37 4.323 2.333 6.48 3.521 2.694 1.465 5.312 3.118 8.119 4.263 1.030 0.427 2.172 0.617 3.224 1.004 29.276 10.558 63.292 4.372 86.728-19.032 32.255-32.278 32.255-84.813 0-117.091-0.773-0.773-1.050-1.794-1.736-2.616-1.482-0.545-3.020-0.819-4.493-1.399-18.227-7.198-27.133-27.779-19.934-45.983 7.199-18.227 27.687-27.11 45.96-19.957 17.486 6.924 35.866 9.736 53.94 8.857 2.050-0.098 4.038-0.418 6.062-0.612 8.961-0.859 17.777-2.647 26.363-5.338 2.022-0.643 4.104-1.148 6.082-1.892 3.867-1.425 7.611-3.187 11.34-4.983 3.42-1.684 6.769-3.467 10.010-5.439 2.532-1.508 5.070-2.999 7.507-4.687 32.587-23.087 54.044-60.905 54.044-103.781 0-70.231-57.127-127.358-127.358-127.358z" />
<glyph unicode="&#xe93b;" glyph-name="cloud-check" d="M972.8 347.014c0 53.795-21.698 102.513-56.605 138.265-0.568 0.649-0.788 1.474-1.411 2.088-8.25 8.109-17.23 15.136-26.544 21.577-3.337 2.354-6.888 4.315-10.373 6.462-5.769 3.487-11.611 6.727-17.66 9.597-5.14 2.487-10.289 4.82-15.663 6.862-4.696 1.757-9.508 3.055-14.316 4.454-10.474 3.092-21.211 5.253-32.322 6.583-1.673 0.202-3.329 0.493-5.008 0.652 18.43 53.81 6.788 115.728-36.052 158.567-29.446 29.446-67.999 44.238-106.696 44.74-0.649 0.035-1.2 0.375-1.858 0.375-17.313 0-33.687-3.516-49.232-8.821-3.13-1.050-6.349-1.673-9.418-2.931-5.002-2.074-9.539-4.915-14.262-7.488-4.223-2.279-8.587-4.16-12.623-6.86-3.782-2.544-7.018-5.752-10.555-8.613-4.269-3.438-8.778-6.438-12.741-10.402-0.291-0.288-0.375-0.684-0.652-0.981-9.213-9.375-16.757-20.198-23.345-31.67-50.934 38.354-111.133 58.685-172.033 59.060-0.704 0.043-1.301 0.407-2.016 0.407-38.564 0-75.317-7.716-109.013-21.436-0.009-0.003-0.017-0.009-0.029-0.012-17.394-7.085-33.929-15.802-49.46-25.973-0.467-0.306-0.955-0.554-1.419-0.862-78.421-52.015-130.295-140.994-130.295-241.933 0-19.569 15.877-35.446 35.446-35.446s35.446 15.877 35.446 35.446c0 60.404 24.551 115.165 64.183 154.866 0.075 0.072 0.176 0.092 0.248 0.164 10.526 10.514 21.894 19.673 33.842 27.6 2.686 1.786 5.761 2.962 8.527 4.633 9.62 5.778 19.344 11.351 29.57 15.525 2.792 1.148 5.862 1.679 8.712 2.712 10.685 3.845 21.45 7.468 32.51 9.606 0.384 0.075 0.796 0.046 1.18 0.118 68.054 12.767 140.89-6.837 193.895-58.61-0.006-0.612-0.182-1.177-0.182-1.791 0-19.569 15.877-35.446 35.446-35.446s35.469 15.877 35.469 35.446c0 27.078 13.261 50.945 33.427 66.063 1.111 0.825 2.091 1.875 3.231 2.637 2.031 1.37 4.324 2.334 6.482 3.522 2.694 1.465 5.313 3.118 8.12 4.263 1.030 0.427 2.172 0.617 3.225 1.004 29.282 10.561 63.306 4.373 86.746-19.036 32.262-32.285 32.262-84.831 0-117.115-0.773-0.773-1.050-1.794-1.737-2.616-1.483-0.545-3.020-0.819-4.494-1.399-18.231-7.2-27.138-27.785-19.938-45.992 7.2-18.231 27.692-27.115 45.969-19.962 17.489 6.926 35.873 9.738 53.951 8.859 2.051-0.098 4.038-0.418 6.063-0.612 8.962-0.86 17.781-2.648 26.368-5.339 2.022-0.643 4.105-1.148 6.084-1.892 3.868-1.425 7.612-3.188 11.342-4.985 3.421-1.685 6.77-3.467 10.012-5.44 2.533-1.509 5.071-3 7.509-4.687 32.593-23.091 54.055-60.917 54.055-103.803 0-70.246-57.138-127.385-127.385-127.385h-433.108c-19.569 0-35.446-15.877-35.446-35.446s15.877-35.446 35.446-35.446h440.262c2.541 0 4.777 0.937 7.168 1.448 102.554 7.488 183.955 92.394 183.955 196.829zM521.046 510.814c-13.846 13.846-36.277 13.846-50.123 0l-255.069-255.092-90.762 90.738c-13.846 13.846-36.277 13.846-50.123 0s-13.846-36.277 0-50.123l115.823-115.8c6.923-6.923 15.992-10.385 25.062-10.385s18.138 3.462 25.062 10.385l280.131 280.154c13.846 13.846 13.846 36.277 0 50.123z" />
<glyph unicode="&#xe93c;" glyph-name="cloud-download" d="M1011.2 338.6c0 58.278-23.506 111.056-61.322 149.787-0.616 0.703-0.853 1.597-1.528 2.263-8.937 8.784-18.666 16.397-28.756 23.375-3.616 2.55-7.463 4.675-11.237 7-6.25 3.778-12.578 7.288-19.131 10.397-5.569 2.694-11.147 5.222-16.969 7.434-5.087 1.903-10.3 3.309-15.509 4.825-11.347 3.35-22.978 5.691-35.016 7.131-1.813 0.219-3.606 0.534-5.425 0.706 19.966 58.294 7.353 125.372-39.056 171.781-31.9 31.9-73.666 47.925-115.588 48.469-0.703 0.037-1.3 0.406-2.012 0.406-18.756 0-36.494-3.809-53.334-9.556-3.391-1.138-6.878-1.813-10.203-3.175-5.419-2.247-10.334-5.325-15.45-8.113-4.575-2.469-9.303-4.506-13.675-7.431-4.097-2.756-7.603-6.231-11.434-9.331-4.625-3.725-9.509-6.975-13.803-11.269-0.316-0.312-0.406-0.741-0.706-1.063-9.981-10.156-18.153-21.881-25.291-34.309-123.050 92.659-298.575 84.234-410.653-27.728-60.25-60.263-90.522-139.112-91.541-218.247-0.131-1.297-0.759-2.422-0.759-3.753 0-41.572 8.297-81.197 23.022-117.553 0.216-0.534 0.375-1.084 0.594-1.619 7.331-17.825 16.334-34.753 26.675-50.766 1.009-1.575 1.856-3.2 2.897-4.759 10.875-16.209 23.275-31.294 36.894-45.184 0.834-0.853 1.372-1.875 2.219-2.719 0.359-0.359 0.844-0.466 1.212-0.806 56.828-56.191 134.853-90.994 220.888-90.994h177.625c21.2 0 38.4 17.2 38.4 38.4s-17.2 38.4-38.4 38.4h-177.625c-74.259 0-139.841 34.944-183.441 88.462-4.591 5.666-9.838 10.972-13.828 16.941-3.841 5.713-6.547 12.153-9.891 18.2-4.247 7.766-8.994 15.337-12.309 23.438-1.631 3.938-2.406 8.263-3.828 12.303-28.894 83.353-10.953 179.491 55.497 245.956 92.022 91.922 241.138 92.341 333.922 1.716-0.006-0.663-0.197-1.275-0.197-1.941 0-21.2 17.2-38.4 38.4-38.4s38.425 17.2 38.425 38.4c0 29.334 14.366 55.191 36.213 71.569 1.203 0.894 2.266 2.031 3.5 2.856 2.2 1.484 4.684 2.528 7.022 3.816 2.919 1.588 5.756 3.378 8.797 4.619 1.116 0.462 2.353 0.669 3.494 1.087 31.722 11.441 68.581 4.738 93.975-20.622 34.95-34.975 34.95-91.9 0-126.875-0.837-0.837-1.138-1.944-1.881-2.834-1.606-0.591-3.272-0.888-4.869-1.516-19.75-7.8-29.4-30.1-21.6-49.825 7.8-19.75 30-29.375 49.8-21.625 18.947 7.503 38.862 10.55 58.447 9.597 2.222-0.106 4.375-0.453 6.569-0.663 9.709-0.931 19.262-2.869 28.566-5.784 2.191-0.697 4.447-1.244 6.591-2.050 4.191-1.544 8.247-3.453 12.287-5.4 3.706-1.825 7.334-3.756 10.847-5.894 2.744-1.634 5.494-3.25 8.134-5.078 35.309-25.016 58.559-65.994 58.559-112.453 0-76.1-61.9-138-138-138h-84.4c-21.2 0-38.4-17.2-38.4-38.4s17.2-38.4 38.4-38.4h92.15c2.753 0 5.175 1.016 7.766 1.569 111.1 8.113 199.284 100.094 199.284 213.231zM748.55 301.7c15 15 15 39.3 0 54.3s-39.3 15-54.3 0l-47.85-47.85v195.625c0 21.2-17.2 38.4-38.4 38.4s-38.4-17.2-38.4-38.4v-195.641l-47.875 47.866c-15 15-39.3 15-54.3 0s-15-39.3 0-54.3l113.425-113.4c3.534-3.534 7.772-6.331 12.459-8.281 4.694-1.944 9.675-2.969 14.691-2.969s9.997 1.025 14.691 2.969c4.687 1.95 8.925 4.747 12.459 8.281l113.4 113.4z" />
</font>
</defs>
</svg>
